Адрес РуТрекера для пользователей РФ - MainTracker.org

Расскажи друзьям:  

Мальчики Витман / Witman fiúk / The Witman Boys (Янош Сас / Janos Szasz) [1997, Венгрия, Польша, Франция, Драма, DVDRip] VO

Страницы:  1

Ответить
Автор
Сообщение

magik2008

Стаж: 10 лет

Сообщений: 290

magik2008 · 31-Авг-11 10:20 (6 лет 11 месяцев назад, ред. 31-Авг-11 10:27)

Мальчики Витман / Witman fiúk / The Witman Boys
Страна: Венгрия, Польша, Франция
Жанр: Драма
Год выпуска: 1997
Продолжительность: 01:33:06
Перевод: Любительский (одноголосый закадровый) || Перевод: enr321, vagrant; озвучка: Василий Кошкин.
Субтитры: английские
Режиссер: Янош Сас / Janos Szasz
В ролях: Доминика Осталовска, Майа Моргенстерн, Лайош Ковач, Петер Андораи, Иштван Холл, Питер Бласко и др.
Описание: Фильм снят по новелле венгерского модерниста, литератора и психиатра Гезы Чата.
Туманное и опасное сознание мальчишек Витман, приводит ребят к взрослым, осознанным и неосознанным, жестоким и холодным поступкам.
Сэмпл: http://multi-up.com/548896
Качество видео: DVDRip (взят из сети)
Формат видео: AVI
Видео: XviD, 640x480, 4:3, 23.976 fps, 1 653 Kbps
Аудио: MP3, 44.1 KHz, 192 Kbps, 2 channels
Формат субтитров: hardsub (неотключаемые)
MediaInfo
General
Complete name : D:\ВИДЕО\На торрент\Witman fiuk rus.avi
Format : AVI
Format/Info : Audio Video Interleave
File size : 1.21 GiB
Duration : 1h 33mn
Overall bit rate : 1 855 Kbps
Video
ID : 0
Format : MPEG-4 Visual
Format profile : Advanced Simple@L5
Format settings, BVOP : No
Format settings, QPel : No
Format settings, GMC : No warppoints
Format settings, Matrix : Default (MPEG)
Codec ID : XVID
Codec ID/Hint : XviD
Duration : 1h 33mn
Bit rate : 1 653 Kbps
Width : 640 pixels
Height : 480 pixels
Display aspect ratio : 4:3
Frame rate : 23.976 fps
Color space : YUV
Chroma subsampling : 4:2:0
Bit depth : 8 bits
Scan type : Progressive
Compression mode : Lossy
Bits/(Pixel*Frame) : 0.224
Stream size : 1.08 GiB (89%)
Writing library : XviD 62
Audio
ID : 1
Format : MPEG Audio
Format version : Version 1
Format profile : Layer 3
Codec ID : 55
Codec ID/Hint : MP3
Duration : 1h 33mn
Bit rate mode : Constant
Bit rate : 192 Kbps
Channel(s) : 2 channels
Sampling rate : 44.1 KHz
Compression mode : Lossy
Stream size : 128 MiB (10%)
Alignment : Split accross interleaves
Interleave, duration : 43 ms (1.04 video frame)
Скриншот c названием фильма
Скриншоты
Download
Чтобы скачать .torrent файл необходима регистрация
Сайт не распространяет и не хранит электронные версии произведений, а лишь предоставляет доступ к создаваемому пользователями каталогу ссылок на торрент-файлы, которые содержат только списки хеш-сумм
[Профиль]  [ЛС] 
 

enr321

Стаж: 10 лет 6 месяцев

Сообщений: 179


enr321 · 01-Сен-11 00:07 (спустя 13 часов)

[Цитировать] 

интересно, когда-нибудь надоест Василию Кошкину шипилявить мои переводы? Сколько ж можно?!
[Профиль]  [ЛС] 

magik2008

Стаж: 10 лет

Сообщений: 290

magik2008 · 01-Сен-11 09:05 (спустя 8 часов, ред. 01-Сен-11 09:05)

[Цитировать] 

Вот что ................
Цитата:
Всем участникам данного форума запрещается:
2.1. Оскорблять участников форума в любой форме (Запрещено проявление любой грубости, угроз, личных оскорблений и нецензурных высказываний, в том числе и в скрытой форме, как в отношении юридических, так и конкретных физических лиц). Участники должны соблюдать уважительную форму общения.
Slava47
[Профиль]  [ЛС] 

Никита_07

Стаж: 7 лет 10 месяцев

Сообщений: 8


Никита_07 · 01-Сен-11 19:51 (спустя 10 часов, ред. 01-Сен-11 19:51)

[Цитировать] 

magik2008
не хорошо с Вашей стороны такое выкладывать, тем более бездоказательно.
если обвиняете, то где скрин письма, присланного якобы от enr321?
тем более, enr321 способен постебаться культурно и без мата..это я знаю точно
зря Вы себя так унижаете.
[Профиль]  [ЛС] 
 
Ответить
Loading...
Error