Адрес РуТрекера для пользователей РФ - 11.MainTracker.org

Расскажи друзьям:  

В мире дикой природы. Долина смерти / Into The Wilderness. Death Valley (Тодд Германн / Todd Hermann) [2009, Документальный, познавательный, научно-популярный, HDTVRip 720p] Dub AVC

Страницы:  1

Ответить
Автор
Сообщение

Mozart_w_a

Top Bonus 05* 10TB

Стаж: 11 лет 8 месяцев

Сообщений: 204

Mozart_w_a · 17-Дек-11 13:17 (7 лет 6 месяцев назад)

В мире дикой природы. Долина смерти / Into The Wilderness. Death Valley
Год выпуска: 2009
Страна: Великобритания
Жанр: Документальный, познавательный, научно-популярный
Продолжительность: 00:49:55
Перевод: Профессиональный (полное дублирование)
Русские субтитры: нет
Режиссер: Тодд Германн / Todd Hermann
Описание: Национальный парк Долина Смерти (Death Valley National Park) является наиболее засушливым национальным парком в США, расположенном к востоку от горного хребта Сьерра-Невада в штате Калифорния, США, а также в небольшом анклаве в штате Невада. Площадь парка составляет 13 518 км² , включает в себя Долину Салина, большую часть Долины Панаминт, почти всю Долину Смерти, а также территории нескольких горных систем. Парк имеет самый сухой и самый жаркий климат среди национальных парков Соединённых Штатов, в нём в месте, известном как Бэдуотер (Badwater), расположена вторая по глубине наземная точка в западном полушарии — 86 м ниже уровня моря. По иронии судьбы самый засушливый регион западного полушария находится над крупнейшей подземной водной системой США. А этот водоем хранит в себе крохотную рыбку, которая существовала ещё в Ледниковом периоде. Их осталось всего пара сотен.
Доп. информация: Рип от Fандорин
Выпущено: National Geographic Channel Network International, LLC
Особенности перевода: Голос рассказчика - полный дубляж, интервью - слышна оригинальная речь
Качество: HDTVRip
Формат: MKV
Видео кодек: H.264
Аудио кодек: AC3
Видео: MPEG4 Video (H264) 1280x720 25.00fps, 7561 Кбит/с
Аудио: Dolby AC3, 2 ch, 448 Кбит/с, 48000Hz
MediaInfo
General
Complete name : G:\Закачки торент\Роздачі\В мире дикой природы.Долина смерти.2009.x264.HDTVRip.720p.mkv
Format : Matroska
File size : 2.80 GiB
Duration : 49mn 58s
Overall bit rate : 8 011 Kbps
Encoded date : UTC 2011-12-17 09:37:37
Writing application : mkvmerge v5.1.0 ('And so it goes') built on Nov 28 2011 23:58:28
Writing library : libebml v1.2.3 + libmatroska v1.3.0
Video
ID : 1
Format : AVC
Format/Info : Advanced Video Codec
Format profile : [email protected]
Format settings, CABAC : Yes
Format settings, ReFrames : 5 frames
Muxing mode : Container [email protected]
Codec ID : V_MPEG4/ISO/AVC
Duration : 49mn 58s
Bit rate : 7 561 Kbps
Width : 1 280 pixels
Height : 720 pixels
Display aspect ratio : 16:9
Frame rate : 25.000 fps
Color space : YUV
Chroma subsampling : 4:2:0
Bit depth : 8 bits
Scan type : Progressive
Bits/(Pixel*Frame) : 0.328
Stream size : 2.58 GiB (92%)
Writing library : x264 core 98 r1649 c54c47d
Encoding settings : cabac=1 / ref=5 / deblock=1:-3:-3 / analyse=0x3:0x133 / me=umh / subme=10 / psy=1 / psy_rd=1.00:0.10 / mixed_ref=1 / me_range=48 / chroma_me=1 / trellis=2 / 8x8dct=1 / cqm=0 / deadzone=21,11 / fast_pskip=0 / chroma_qp_offset=-3 / threads=6 / sliced_threads=0 / nr=0 / decimate=1 / interlaced=0 / constrained_intra=0 / bframes=3 / b_pyramid=2 / b_adapt=2 / b_bias=0 / direct=3 / weightb=1 / weightp=2 / keyint=250 / keyint_min=25 / scenecut=40 / intra_refresh=0 / rc_lookahead=40 / rc=2pass / mbtree=1 / bitrate=7561 / ratetol=1.0 / qcomp=0.60 / qpmin=10 / qpmax=51 / qpstep=4 / cplxblur=20.0 / qblur=0.5 / ip_ratio=1.40 / aq=1:1.00
Audio
ID : 2
Format : AC-3
Format/Info : Audio Coding 3
Mode extension : CM (complete main)
Codec ID : A_AC3
Duration : 49mn 58s
Bit rate mode : Constant
Bit rate : 448 Kbps
Channel(s) : 2 channels
Channel positions : Front: L R
Sampling rate : 48.0 KHz
Stream size : 160 MiB (6%)
Language : Russian
Скриншоты
После закачки остаёмся на раздаче!!!
Download
Чтобы скачать .torrent файл необходима регистрация
Сайт не распространяет и не хранит электронные версии произведений, а лишь предоставляет доступ к создаваемому пользователями каталогу ссылок на торрент-файлы, которые содержат только списки хеш-сумм
[Профиль]  [ЛС] 
 

Mozart_w_a

Top Bonus 05* 10TB

Стаж: 11 лет 8 месяцев

Сообщений: 204

Mozart_w_a · 10-Июл-12 22:06 (спустя 6 месяцев)

За полгода модераторы уже бы могли и проверить раздачу, или как???
[Профиль]  [ЛС] 

twdragon

Top Seed 03* 160r

Стаж: 11 лет 3 месяца

Сообщений: 797

twdragon · 13-Окт-12 15:49 (спустя 3 месяца 2 дня, ред. 13-Окт-12 20:00)

Цитата:
Особенности перевода: Голос рассказчика - полный дубляж, интервью - слышна оригинальная речь
Сделайте, пожалуйста, сэмпл, где слышно, как ведется перевод и голоса рассказчика, и интервью.
[Профиль]  [ЛС] 

Vasechegua

Стаж: 9 лет 4 месяца

Сообщений: 21


Vasechegua · 06-Янв-13 17:30 (спустя 2 месяца 24 дня)

Спасибо за раздачу!!!! Побольше бы таких программ...
[Профиль]  [ЛС] 
 
Ответить
Loading...
Error