Адрес РуТрекера для пользователей РФ - 11.MainTracker.org

Расскажи друзьям:  

Москва. Три вокзала 5 / Сезон: 5 / Серии: 1-24 из 24 (Юрий Павлов (II), Рауф Кубаев, Андрей Канивченко, Евгений Невский, Константин Статский, Рустам Уразаев, Степан Коршунов, Владимир Нахабцев (мл.)) [2012, Детектив, криминал, SATRip]

Страницы:  1

Ответить
Автор
Сообщение

ralf7sh

Стаж: 11 лет 9 месяцев

Сообщений: 302

ralf7sh · 22-Июл-13 22:38 (5 лет 11 месяцев назад, ред. 22-Июл-13 23:17)

Москва. Три вокзала 5
Год выпуска: 2012
Производство: Россия, ООО "Студия "Центр кинопроизводства", ООО "Форвард-Фильм"
Жанр: Детектив, криминал
Продолжительность: 00:45:00
Субтитры: нет
Режиссёр: Юрий Павлов (II), Рауф Кубаев, Андрей Канивченко, Евгений Невский, Константин Статский, Рустам Уразаев, Степан Коршунов, Владимир Нахабцев (мл.)
В ролях: Владимир Стеклов, Андрей Фролов (II), Алексей Булдаков, Александр Цуркан, Владимир Жеребцов, Иван Оганесян, Марина Гайзидорская, Андрей Вальц, Мария Кононова, Александр Негреба, Елена Ожиганова, Владимир Яковлев (II), Игорь Гудеев, Василий Фурсенко, Виктор Супрун, Андрей Бутин, Ксения Роменкова, Дмитрий Щербина, Елена Глазкова, Алексей Вакулов, Юлия Тельпухова, Елена Лагута, Нина Ракова, Денис Константинов, Михаил Богдасаров, Владимир Бадов, Дмитрий Блохин
Описание: Москва. Площадь трех вокзалов — Ленинградского, Ярославского и Казанского. Бермудский треугольник столицы. Здесь ломаются судьбы и продаются билеты в один конец. Тут часто оказываются на верном пути, а от расписания иногда зависят жизнь и смерть.
Все раздачи сериала
Сэмпл
Качество: SATRip
Формат: AVI
Видео кодек: XviD
Аудио кодек: МР3
Видео: 720x400 (1.80:1), 25 fps, XviD build 50 ~1454 kbps avg, 0.20 bit/pixel
Аудио: 48 kHz, MPEG Layer 3, 2 ch, ~192.00 kbps avg
Релиз от:
MI
General
Complete name : V:\ftp4\Videos\Moskva.tri.vokzala-5.2012.XviD.SATRip.Files-x\Moskva.tri.vokzala-5.08.seriya.2012.XviD.SATRip.Files-x.avi
Format : AVI
Format/Info : Audio Video Interleave
File size : 550 MiB
Duration : 45mn 58s
Overall bit rate : 1 674 Kbps
Writing application : VirtualDubMod 1.5.10.3 | www.virtualdub-fr.org || (build 2550/release)
Writing library : VirtualDubMod build 2550/release
Video
ID : 0
Format : MPEG-4 Visual
Format profile : Advanced [email protected]
Format settings, BVOP : 1
Format settings, QPel : No
Format settings, GMC : No warppoints
Format settings, Matrix : Default (H.263)
Codec ID : XVID
Codec ID/Hint : XviD
Duration : 45mn 58s
Bit rate : 1 472 Kbps
Width : 720 pixels
Height : 400 pixels
Display aspect ratio : 16:9
Frame rate : 25.000 fps
Color space : YUV
Chroma subsampling : 4:2:0
Bit depth : 8 bits
Scan type : Progressive
Compression mode : Lossy
Bits/(Pixel*Frame) : 0.204
Stream size : 484 MiB (88%)
Writing library : XviD 1.2.1 (UTC 2008-12-04)
Audio
ID : 1
Format : MPEG Audio
Format version : Version 1
Format profile : Layer 3
Codec ID : 55
Codec ID/Hint : MP3
Duration : 45mn 58s
Bit rate mode : Constant
Bit rate : 192 Kbps
Channel(s) : 2 channels
Sampling rate : 48.0 KHz
Compression mode : Lossy
Stream size : 63.1 MiB (11%)
Alignment : Aligned on interleaves
Interleave, duration : 40 ms (1.00 video frame)
Interleave, preload duration : 504 ms
Writing library : LAME3.98r
Encoding settings : -m s -V 4 -q 2 -lowpass 18.6 -b 192
Скриншоты
Раздача ведется путем добавления новых серий
Внимание! Раздача ведётся путём добавления новых серий; при каждом добавлении создётся новый торрент. Чтобы начать докачку новой серии, пользователям необходимо сделать следующее:
(1) остановить скачивание,
(2) удалить старый торрент у себя из клиента (старые серии удалять не надо),
(3) скачать новый торрент и запустить его у себя в клиенте вместо старого, при этом указать клиенту путь в старую папку куда и должно происходить скачивание новых серий.
Ваш клиент при этом должен произвести хеширование (проверку) старой папки (если не производит сам - помогите ему сделать это), и будет докачивать только те серии которых у вас ещё нет. Старые серии при этом не удаляются, а продолжают раздаваться!
Eсли вы уже удалили старые серии, то предотвратить повторную закачку старых серий можно, отжав галочку в соответствующих местах при запуске нового торрента.
Download
Чтобы скачать .torrent файл необходима регистрация
Сайт не распространяет и не хранит электронные версии произведений, а лишь предоставляет доступ к создаваемому пользователями каталогу ссылок на торрент-файлы, которые содержат только списки хеш-сумм
[Профиль]  [ЛС] 
 

Сударыня

Moderator

Стаж: 12 лет 2 месяца

Сообщений: 11578

Сударыня · 23-Июл-13 06:29 (спустя 7 часов)

ralf7sh
Сравнение надо сделать с этой раздачей http://1.maintracker.org/forum/viewtopic.php?t=4326626
Как правильно сделать сравнение скриншотов
Что тут с недостающими сериями?
[Профиль]  [ЛС] 

drakula05

RG Русские сериалы

Стаж: 11 лет 8 месяцев

Сообщений: 656

drakula05 · 23-Июл-13 15:41 (спустя 9 часов)

Сударыня писал(а):
60197839ralf7sh
Сравнение надо сделать с этой раздачей http://1.maintracker.org/forum/viewtopic.php?t=4326626
Как правильно сделать сравнение скриншотов
Что тут с недостающими сериями?
полная версия с канала нтв
[Профиль]  [ЛС] 

Сударыня

Moderator

Стаж: 12 лет 2 месяца

Сообщений: 11578

Сударыня · 23-Июл-13 16:23 (спустя 42 мин.)

drakula05 писал(а):
60202519полная версия с канала нтв
Очень хорошо. Благодарю.
[Профиль]  [ЛС] 

ralf7sh

Стаж: 11 лет 9 месяцев

Сообщений: 302

ralf7sh · 23-Июл-13 16:28 (спустя 5 мин.)

http://screenshotcomparison.com/comparison/33462/picture:2 сравнение
[Профиль]  [ЛС] 

lady Wong

Стаж: 7 лет 8 месяцев

Сообщений: 1789


lady Wong · 23-Июл-13 20:25 (спустя 3 часа)

Незатейливо,но смотреть отдыхая и подрёмывая можно!)
Особенно меня прикалывало,когда после жизнерадостной вступительной песенки,Газманова?),шло какое-нибудь мрачненькое убивство!))
[Профиль]  [ЛС] 

olabpa

Стаж: 8 лет 5 месяцев

Сообщений: 3


olabpa · 28-Июл-13 17:32 (спустя 4 дня)

я смотрел24 серию Ленин жив, а здесь другая
[Профиль]  [ЛС] 

dnh1961

Стаж: 11 лет 2 месяца

Сообщений: 1


dnh1961 · 02-Авг-13 13:48 (спустя 4 дня)

А куда делся 6 сезон?
[Профиль]  [ЛС] 

avas172

Стаж: 9 лет 3 месяца

Сообщений: 87

avas172 · 02-Авг-13 18:33 (спустя 4 часа, ред. 02-Авг-13 18:33)

dnh1961 писал(а):
60330137А куда делся 6 сезон?
все. скажите спасибо антипиратскому закону и заботящимся о населении депутатам. пропустил серию - не посмотреть теперь.
пичально все это.
[Профиль]  [ЛС] 

vacvvm

Стаж: 10 лет 7 месяцев

Сообщений: 1193

vacvvm · 02-Авг-13 18:51 (спустя 18 мин.)

avas172 писал(а):
60333302
dnh1961 писал(а):
60330137А куда делся 6 сезон?
все. скажите спасибо антипиратскому закону и заботящимся о населении депутатам. пропустил серию - не посмотреть теперь.
пичально все это.
Если раздача закрыта правообладателем, то так бы и сказали, зачем же все обсуждение стирать, как будто его и не было?
Закон запрещает даже обсуждать?
[Профиль]  [ЛС] 
 
Ответить
Loading...
Error