Адрес РуТрекера для пользователей РФ - 11.MainTracker.org

Расскажи друзьям:  

Регулировка металлопластиковых окон и дверей своими рукам. Видеоурок [2013, видеоурок, CAMRip]

Страницы:  1

Ответить
Автор
Сообщение

obtim

Top Seed 04* 320r

Стаж: 12 лет 11 месяцев

Сообщений: 1827

obtim · 15-Июн-13 09:40 (6 лет 1 месяц назад, ред. 19-Июн-13 09:05)

Регулировка металлопластиковых окон и дверей своими руками.


Год: 2013

Страна:
Украина
Тематика: Ремонт/интерьер
Тип материала: Видеоурок
Продолжительность: 00:05:07
Автор: "Неизвестен"
Язык: Русский
Субтитры: Отсутствуют
Описание:
Практически все современные металлопластиковые окна со временем начинают сквозить (створка окна недостаточно прижимается к раме), и если Вы не в курсе – в механизме любого окна заложены функции его регулировки.
Качество: CAMRip
Формат:
mpg
Видео кодек: MPEG 2
Аудио кодек: MP2
Видео: 1920х 1080, 25.000 fps, 8259 Кбит/сек
Аудио: 48.0 KHz, 2 ch, 192 Кбит/сек
MediaInfo:
Общее
Полное имя : D:\Download\regg_okonn.mpg
Формат : MPEG-PS
Размер файла : 316 Мбайт
Продолжительность : 5 м. 7 с.
Режим общего битрейта : Переменный
Общий поток : 8622 Кбит/сек
Видео
Идентификатор : 224 (0xE0)
Формат : MPEG Video
Версия формата : Version 2
Профиль формата : [email protected]
Параметр BVOP формата : Да
Параметр матрицы формата : По умолчанию
Параметр GOP формата : M=3, N=12
Продолжительность : 5 м. 7 с.
Вид битрейта : Переменный
Битрейт : 8259 Кбит/сек
Максимальный битрейт : 2519 Мбит/сек
Ширина : 1920 пикселей
Высота : 1080 пикселей
Соотношение сторон : 16:9
Частота кадров : 25,000 кадров/сек
Цветовое пространство : YUV
Субдискретизация насыщенности : 4:2:0
Битовая глубина : 8 бит
Тип развёртки : Прогрессивная
Метод сжатия : С потерями
Бит/(Пиксели*Кадры) : 0.159
TimeCode_FirstFrame : 00:00:00:00
TimeCode_Source : Group of pictures header
Размер потока : 303 Мбайт (96%)
Аудио
Идентификатор : 192 (0xC0)
Формат : MPEG Audio
Версия формата : Version 1
Профиль формата : Layer 2
Продолжительность : 5 м. 7 с.
Вид битрейта : Постоянный
Битрейт : 192 Кбит/сек
Каналы : 2 канала
Частота : 48,0 КГц
Метод сжатия : С потерями
Размер потока : 7,04 Мбайт (2%)

Скриншоты:
Download
Чтобы скачать .torrent файл необходима регистрация
Сайт не распространяет и не хранит электронные версии произведений, а лишь предоставляет доступ к создаваемому пользователями каталогу ссылок на торрент-файлы, которые содержат только списки хеш-сумм
[Профиль]  [ЛС] 
 

LegendKiev

VIP (Заслуженный)

Стаж: 8 лет 8 месяцев

Сообщений: 9100

LegendKiev · 18-Июн-13 20:41 (спустя 3 дня)

obtim
Цитата:
Качество: PCRec
Что значит это обозначение?
Скриншоты должны быть в виде превью. Поправьте, пожалуйста.
Как залить картинку на бесплатный хост
Добавьте отчёт MediaInfo.
Как получить информацию по видеофайлу?
[Профиль]  [ЛС] 

Alexs85

Стаж: 12 лет

Сообщений: 145

Alexs85 · 01-Июл-13 21:53 (спустя 13 дней)

Видимо запись с компа, это если логический подумать, а так хз, сам в первые вижу. Но за раздачу благодарю, нужный материал.
[Профиль]  [ЛС] 

TapeWorms

Стаж: 8 лет 8 месяцев

Сообщений: 10

TapeWorms · 11-Авг-13 19:40 (спустя 1 месяц 9 дней)

В видео изложены регулировка створок по горизонтали и вертикали и по прижиму. Все быстро и понятно - это плюс. Минусы - камера трясется так, будто оператор с сильного бодуна, постоянно теряя фокус, и регулировка прижима показана только для конкретной модели окна. У меня он, к примеру регулируется не ключом, а шестигранником. Но это мелочи.
[Профиль]  [ЛС] 
 
Ответить
Loading...
Error