PBS: Природа - Дом животных / PBS: Nature - The Animal House (Марк Флэтчер / Mark Fletcher) [2011, Документальный, научно-познавательный, природа, BDRip]

Страницы:  1

Ответить
Автор
Сообщение

-ukraine-

RG Документалисты

Стаж: 7 лет 2 месяца

Сообщений: 743

-ukraine- · 14-Окт-13 14:22 (5 лет назад)

PBS: Природа - Дом животных / PBS: Nature - The Animal House«The award-winning NATURE series is the longest-running weekly natural history series on television»
Год выпуска: 2011
Страна: США
Студия: Public Broadcasting Service
Жанр: Документальный, научно-познавательный, природа
Продолжительность: 00:52:42
Перевод: Одноголосый закадровый
Доп. инфо о переводе: Д. Есарев
Русские субтитры: отсутствуют
Режиссер: Марк Флэтчер / Mark Fletcher
В ролях: Chris Morgan
Описание: Животные строят дома по тем же самым причинам, что и люди, но они начали это делать гораздо гораздо раньше человека... Дома животных могут быть очень простыми, но иногда ни похожи на настоящее архитектурное чудо. Все эти сооружения - вне зависимости от того, нора это, гнездо или еще что-либо - это места, где разворачиваются драмы и где порой происходят очень неординарные события... В этом фильме мы увидим признанных мастеров по части постройки домов - термитов и трудолюбивых бобров, а также подлинных гениев маскировки - птиц-шалашников, умело маскирующих вход в свое жилище яркими цветами, отвлекающими на него внимание... В этом фильме мы попробуем взглянуть на жизнь разнообразных обитателей дикой природы в их "домашних условиях"...

Качество: BDRip
Формат: AVI
Видео: MPEG-4 Visual, XviD, 720 х 400 (16:9), 29,970 кадров/сек, 1798 Кбит/сек, 0.208 бит/пиксель
Аудио: Russian, AC-3, 48,0 КГц, 192 Кбит/сек, 6 каналов (Front: L C R, Side: L R, LFE)
Дополнительная информация:
  • Перевод Дмитрия Есарева выполнен в рамках сервиса от HDCLUB "Озвучивание". Спонсоры: dinocrisis, h4kdr, Snow_Leopard, ZeRoNe, tambov68, RAUL
  • Релиз группа: R. G. BitTracker
  • Автор Rip'а: skorpionN
MediaInfo
Общее
Полное имя : D:\torrent\The Animal House.avi
Формат : AVI
Формат/Информация : Audio Video Interleave
Размер файла : 755 Мбайт
Продолжительность : 52 м.
Общий поток : 2002 Кбит/сек
Программа кодирования : VirtualDubMod 1.5.10.3 | www.virtualdub-fr.org || (build 2550/release)
Библиотека кодирования : VirtualDubMod build 2550/release
Видео
Идентификатор : 0
Формат : MPEG-4 Visual
Профиль формата : Advanced [email protected]
Параметр BVOP формата : 2
Параметр QPel формата : Нет
Параметр GMC формата : Без точки перехода
Параметр матрицы формата : Default (H.263)
Идентификатор кодека : XVID
Идентификатор кодека/Подсказка : XviD
Продолжительность : 52 м.
Битрейт : 1798 Кбит/сек
Ширина : 720 пикселей
Высота : 400 пикселей
Соотношение сторон : 16:9
Частота кадров : 29,970 кадров/сек
Цветовое пространство : YUV
Субдискретизация насыщенности : 4:2:0
Битовая глубина : 8 бит
Тип развёртки : Прогрессивная
Метод сжатия : С потерями
Бит/(Пиксели*Кадры) : 0.208
Размер потока : 678 Мбайт (90%)
Библиотека кодирования : XviD 1.2.1 (UTC 2008-12-04)
Аудио
Идентификатор : 1
Формат : AC-3
Формат/Информация : Audio Coding 3
Расширение режима : CM (complete main)
Параметр Endianness формата : Big
Идентификатор кодека : 2000
Продолжительность : 52 м.
Вид битрейта : Постоянный
Битрейт : 192 Кбит/сек
Каналы : 6 каналов
Расположение каналов : Front: L C R, Side: L R, LFE
Частота : 48,0 КГц
Битовая глубина : 16 бит
Метод сжатия : С потерями
Размер потока : 72,4 Мбайт (10%)
Выравнивание : Разделение по промежуткам
Продолжительность промежутка : 33 мс. (1,00 видеокадр)
Время предзагрузки промежутка : 500 мс.
Скриншоты
Download
Чтобы скачать .torrent файл необходима регистрация
Сайт не распространяет и не хранит электронные версии произведений, а лишь предоставляет доступ к создаваемому пользователями каталогу ссылок на торрент-файлы, которые содержат только списки хеш-сумм
[Профиль]  [ЛС] 
 

BBDragon

Консольщик

Стаж: 11 лет 2 месяца

Сообщений: 2478

BBDragon · 14-Окт-13 15:57 (спустя 1 час 34 мин.)

[Цитировать] 

-ukraine-
укажите, пожалуйста, в заголовке страну (США). Ввиду того, что у вас не устранена телекино-поcледовательность, скорее всего будет статус "сомнительно"
13. Критерии присвоения статусов # сомнительно и T временная
[Профиль]  [ЛС] 

xfiles

RG Мультфильмы

Стаж: 11 лет

Сообщений: 43144

xfiles · 15-Окт-13 10:15 (спустя 18 часов, ред. 15-Окт-13 10:15)

[Цитировать] 

BBDragon писал(а):
61274564Ввиду того, что у вас не устранена телекино-поcледовательность
А она тут есть? Семпл качали, покадрово листали?
[Профиль]  [ЛС] 

fcnhflfv

Стаж: 9 лет 11 месяцев

Сообщений: 183


fcnhflfv · 16-Окт-13 10:35 (спустя 1 день, ред. 16-Окт-13 10:35)

[Цитировать] 

-ukraine- Спасибо большое за релиз!!!! Респект !!! А Гималаи смогли бы в таком варианте выложить?
[Профиль]  [ЛС] 

Mat1us

Стаж: 10 лет

Сообщений: 307


Mat1us · 17-Окт-13 19:23 (спустя 1 день 8 часов)

[Цитировать] 

fcnhflfv в сети [ 2013-04-23 17:21 ]
PBS Nature: Гималаи / The Himalayas [сезон 29 серия 9]
Качество видео: BDRip
Формат видео: AVI
Видео кодек: XviD
Аудио кодек: AC3
Видео: 720x400 29.970fps 1798kbps
Аудио: AC3 6ch, 48kHz, 192 kbps
Релиз группа: R. G. BitTracker
Автор Rip'а: skorpionN
[Профиль]  [ЛС] 
 
Ответить
Loading...
Error