Адрес РуТрекера для пользователей РФ - MainTracker.org

Расскажи друзьям:  

Stromae - Papaoutai & Formidable [2013, Hip-hop, Electronic, HDTV 1080i]

Страницы:  1

Ответить
Автор
Сообщение

art-v-k

Стаж: 7 лет 11 месяцев

Сообщений: 428

art-v-k · 02-Авг-13 21:23 (4 года 9 месяцев назад)

Stromae - Papaoutai & Formidable
Жанр: Hip-hop, Electronic
Год выпуска: 2013
Papaoutai - 00:03:50
Formidable - 00:04:31
Качество: HDTV 1080i
Контейнер: TS
Видео кодек: H.264
Аудио кодек: AC3
Видео: H.264; 1920x1080; 5 484/7 919 Kbps ; 25.000 fps
Аудио: AC-3; 384 Kbps; 48,0 КГц; 6 ch
Аудио 2: AC-3; 256 Kbps; 48,0 КГц; 2 ch
MediaInfo
Complete name                            : 1. Stromae – Papaoutai.ts
Format : MPEG-TS
File size : 178 MiB
Duration : 3mn 50s
Overall bit rate mode : Variable
Overall bit rate : 6 449 Kbps
Video
ID : 171 (0xAB)
Menu ID : 9312 (0x2460)
Format : AVC
Format/Info : Advanced Video Codec
Format profile : High@L4.0
Format settings, CABAC : Yes
Format settings, ReFrames : 4 frames
Codec ID : 27
Duration : 3mn 50s
Bit rate : 5 484 Kbps
Width : 1 920 pixels
Height : 1 080 pixels
Display aspect ratio : 16:9
Frame rate : 25.000 fps
Color space : YUV
Chroma subsampling : 4:2:0
Bit depth : 8 bits
Scan type : MBAFF
Bits/(Pixel*Frame) : 0.106
Stream size : 151 MiB (85%)
Encryption : Seca Mediaguard 1/2
Color primaries : BT.709
Transfer characteristics : BT.709
Matrix coefficients : BT.709
Audio #1
ID : 125 (0x7D)
Menu ID : 9312 (0x2460)
Format : AC-3
Format/Info : Audio Coding 3
Mode extension : CM (complete main)
Format settings, Endianness : Big
Codec ID : 6
Duration : 3mn 50s
Bit rate mode : Constant
Bit rate : 384 Kbps
Channel(s) : 6 channels
Channel positions : Front: L C R, Side: L R, LFE
Sampling rate : 48.0 KHz
Bit depth : 16 bits
Compression mode : Lossy
Delay relative to video : 12ms
Stream size : 10.6 MiB (6%)
Language : French
Encryption : Seca Mediaguard 1/2
Audio #2
ID : 126 (0x7E)
Menu ID : 9312 (0x2460)
Format : AC-3
Format/Info : Audio Coding 3
Format profile : Dolby Digital
Mode extension : CM (complete main)
Format settings, Endianness : Big
Codec ID : 6
Duration : 3mn 50s
Bit rate mode : Constant
Bit rate : 256 Kbps
Channel(s) : 2 channels
Channel positions : Front: L R
Sampling rate : 48.0 KHz
Bit depth : 16 bits
Compression mode : Lossy
Delay relative to video : 5ms
Stream size : 7.04 MiB (4%)
Language : English
Encryption : Seca Mediaguard 1/2
#####################################################################
Complete name : 2. Stromae - Formidable.ts
Format : MPEG-TS
File size : 291 MiB
Duration : 4mn 31s
Overall bit rate mode : Variable
Overall bit rate : 9 011 Kbps
Video
ID : 171 (0xAB)
Menu ID : 9312 (0x2460)
Format : AVC
Format/Info : Advanced Video Codec
Format profile : High@L4.0
Format settings, CABAC : Yes
Format settings, ReFrames : 4 frames
Codec ID : 27
Duration : 4mn 31s
Bit rate : 7 919 Kbps
Width : 1 920 pixels
Height : 1 080 pixels
Display aspect ratio : 16:9
Frame rate : 25.000 fps
Color space : YUV
Chroma subsampling : 4:2:0
Bit depth : 8 bits
Scan type : MBAFF
Bits/(Pixel*Frame) : 0.153
Stream size : 256 MiB (88%)
Encryption : Seca Mediaguard 1/2
Color primaries : BT.709
Transfer characteristics : BT.709
Matrix coefficients : BT.709
Audio #1
ID : 125 (0x7D)
Menu ID : 9312 (0x2460)
Format : AC-3
Format/Info : Audio Coding 3
Mode extension : CM (complete main)
Format settings, Endianness : Big
Codec ID : 6
Duration : 4mn 31s
Bit rate mode : Constant
Bit rate : 384 Kbps
Channel(s) : 6 channels
Channel positions : Front: L C R, Side: L R, LFE
Sampling rate : 48.0 KHz
Bit depth : 16 bits
Compression mode : Lossy
Delay relative to video : 4ms
Stream size : 12.4 MiB (4%)
Language : French
Encryption : Seca Mediaguard 1/2
Audio #2
ID : 126 (0x7E)
Menu ID : 9312 (0x2460)
Format : AC-3
Format/Info : Audio Coding 3
Format profile : Dolby Digital
Mode extension : CM (complete main)
Format settings, Endianness : Big
Codec ID : 6
Duration : 4mn 31s
Bit rate mode : Constant
Bit rate : 256 Kbps
Channel(s) : 2 channels
Channel positions : Front: L R
Sampling rate : 48.0 KHz
Bit depth : 16 bits
Compression mode : Lossy
Delay relative to video : 32ms
Stream size : 8.27 MiB (3%)
Language : English
Скриншоты
Download
Чтобы скачать .torrent файл необходима регистрация
Сайт не распространяет и не хранит электронные версии произведений, а лишь предоставляет доступ к создаваемому пользователями каталогу ссылок на торрент-файлы, которые содержат только списки хеш-сумм
[Профиль]  [ЛС] 
 

fff198

Стаж: 7 лет 10 месяцев

Сообщений: 5


fff198 · 17-Авг-13 22:19 (спустя 15 дней)

[Цитировать] 

Сенькью вери мач!!
[Профиль]  [ЛС] 

Dima822

Стаж: 7 лет 7 месяцев

Сообщений: 227

Dima822 · 23-Авг-13 06:08 (спустя 5 дней, ред. 24-Авг-13 05:44)

[Цитировать] 

Formidable - Отличный клип.
"Особенностью клипа к этой песне является то, что он полностью снят скрытыми камерами. Обычным весенним утром 21 мая 2013 г. на трамвайной остановке в Брюсселе Stromae притворяется пьяным, чем обращает на себя внимание полиции (см. клип), зевак с фотокамерами и масс-медиа, которые раздувают конфликт и осуждают поведение певца. Но выход клипа спустя три дня превращает обрушившуюся волну критики в мощную пиар-акцию, а само видео становится вирусным — за первую неделю только на Youtube его просмотрело свыше 4,5 млн. чел."
Отсюда: http://fr.lyrsense.com/stromae/formidable
Там же и перевод песни.
[Профиль]  [ЛС] 

ipp72

Стаж: 7 лет 8 месяцев

Сообщений: 18

ipp72 · 03-Дек-13 09:14 (спустя 3 месяца 11 дней)

[Цитировать] 

Хороший клип.... Но, я так понял, большинство "зрителей", в том числе и полицейские, его узнали ... и снимали как пьяного полулярного артиста.
Очень мила' девушка, которая поднимала его с трамвайных путей... Потом до неё допёрло, что это "ОН" и она то же стала снимать на мобильник. Но, первый посыл был искренен - помочь человеку, оказавшемуся не в совсем комфортной ситуации.
Было бы забавно видеть какого-нибудь Диму Билана (простите за сравнение) пьяного на остановке и кучу народу, снимающего его на мобильники... Учитывая скудность фантазии отечественных клиподелов... будем внимательнее на трамвайных остановках
ИТОГО: клип отлично передал настроение и посыл самой песни... Большое спасибо.
[Профиль]  [ЛС] 

Mausers

Стаж: 8 лет 5 месяцев

Сообщений: 11


Mausers · 27-Янв-14 17:34 (спустя 1 месяц 24 дня)

[Цитировать] 

Клип отличный только он НЕ смонтирован из видюшек снятых на телефоны и прочие гаджеты прохожими - киньте в меня камень если это не так - если так (снято на камеры мобилок и т. д.) то почему все устройства писали в одном качестве? Да и сколько вам попадалось в просторах интернета подсмотренных видюшек с отличным качеством? У всех как правило артефакты, перекосы по цвету, дергатня и т. д. :О)
А клип и песня и сам исполнитель бесподобны :О)
[Профиль]  [ЛС] 

Cavalera

Стаж: 10 лет 9 месяцев

Сообщений: 103

Cavalera · 16-Мар-14 05:09 (спустя 1 месяц 19 дней)

[Цитировать] 

Mausers
Очевидно, что снимали с нескольких точек скрытыми камерами, кто вам сказал, что клип снят на мобилки?
[Профиль]  [ЛС] 

Василий Задов

RG Мультфильмы

Стаж: 10 лет 5 месяцев

Сообщений: 3214

Василий Задов · 31-Май-14 00:02 (спустя 2 месяца 14 дней)

[Цитировать] 

Когда будет Tous Les Mêmes в HD?
[Профиль]  [ЛС] 
 
Ответить
Loading...
Error