Адрес РуТрекера для пользователей РФ - 11.MainTracker.org

Расскажи друзьям:  

Юрий Гомонов, Духовные технологии и мышление людей Золотого Века [2013, религия, ведизм, язычество, DVDRip]

Страницы:  1

Ответить
Автор
Сообщение

МИТРА-ДОН

Стаж: 9 лет 9 месяцев

Сообщений: 146

МИТРА-ДОН · 16-Июн-13 21:29 (5 лет 11 месяцев назад, ред. 20-Июн-13 21:36)

Юрий Гомонов, Духовные технологии и мышление людей Золотого Века
Год выпуска: 2013
Страна: РФ
Жанр: религия, ведизм, язычество
Продолжительность: 01:14:38
Перевод: Не требуется
Русские субтитры: нет
Описание: Видео-лекция Юрия Гомонова о Золотом Веке, технологиях золотого века и мышлении людей которые будут жить в новом веке. Июнь 2013
качество: DVDRip
формат: AVI
Видео: Xvid 720x400 16:9, 1 268 Kbps 23.98fps
Аудио: MPEG Audio Layer 3 48000Hz stereo 128kbps
MediaInfo
General
Complete name : D:\Мои разд\Духовные практики и мышление людей Золотого века\Духовные технологии.avi
Format : AVI
Format/Info : Audio Video Interleave
File size : 750 MiB
Duration : 1h 14mn
Overall bit rate : 1 405 Kbps
Writing application : VirtualDubMod 1.5.10.2 (build 2540/release)
Writing library : VirtualDubMod build 2540/release
Video
ID : 0
Format : MPEG-4 Visual
Format profile : Advanced [email protected]
Format settings, BVOP : Yes
Format settings, QPel : No
Format settings, GMC : No warppoints
Format settings, Matrix : Default (H.263)
Muxing mode : Packed bitstream
Codec ID : XVID
Codec ID/Hint : XviD
Duration : 1h 14mn
Bit rate : 1 268 Kbps
Width : 720 pixels
Height : 400 pixels
Display aspect ratio : 16:9
Frame rate : 23.976 fps
Color space : YUV
Chroma subsampling : 4:2:0
Bit depth : 8 bits
Scan type : Progressive
Bits/(Pixel*Frame) : 0.184
Stream size : 677 MiB (90%)
Writing library : XviD 1.2.0.dev47 (UTC 2006-11-01)
Audio
ID : 1
Format : MPEG Audio
Format version : Version 1
Format profile : Layer 3
Codec ID : 55
Codec ID/Hint : MP3
Duration : 1h 14mn
Bit rate mode : Constant
Bit rate : 128 Kbps
Channel(s) : 2 channels
Sampling rate : 48.0 KHz
Stream size : 68.3 MiB (9%)
Alignment : Aligned on interleaves
Interleave, duration : 42 ms (1.00 video frame)
Interleave, preload duration : 504 ms
Writing library : LAME3.97
Encoding settings : -m s -V 4 -q 2 -lowpass 17 -b 128
Скриншоты
Download
Чтобы скачать .torrent файл необходима регистрация
Сайт не распространяет и не хранит электронные версии произведений, а лишь предоставляет доступ к создаваемому пользователями каталогу ссылок на торрент-файлы, которые содержат только списки хеш-сумм
[Профиль]  [ЛС] 
 

Arsenal15

Moderator

Стаж: 8 лет 9 месяцев

Сообщений: 12618

Arsenal15 · 16-Июн-13 23:19 (спустя 1 час 49 мин.)

[Цитировать] 

Уменьшите, пожалуйста, постер, он не должен быть больше, чем 500x600
? Недооформлено

[Профиль]  [ЛС] 

Джулио Сезар

Стаж: 6 лет 10 месяцев

Сообщений: 3


Джулио Сезар · 27-Июн-13 08:46 (спустя 10 дней)

[Цитировать] 

Очередное испражнение псевдомыслителей... В психушку таких надо...
[Профиль]  [ЛС] 

МИТРА-ДОН

Стаж: 9 лет 9 месяцев

Сообщений: 146

МИТРА-ДОН · 27-Июн-13 20:47 (спустя 12 часов)

[Цитировать] 

Джулио Сезар писал(а):
59872750Очередное испражнение псевдомыслителей... В психушку таких надо...
Очередной псевдопсихиатр с манией величия.
[Профиль]  [ЛС] 

arhipp

Стаж: 9 лет 1 месяц

Сообщений: 10


arhipp · 28-Июн-13 14:23 (спустя 17 часов, ред. 28-Июн-13 14:23)

[Цитировать] 

Бред сивой кобылы, вот это чувак гонит
[Профиль]  [ЛС] 

seandragon

Стаж: 5 лет 9 месяцев

Сообщений: 2

seandragon · 25-Авг-13 00:29 (спустя 1 месяц 26 дней)

[Цитировать] 

Этот ролик ещё не смотрела, посмотрю. Видела "Ветхий завет. Книга зверя" и "Новый завет. Книга зверя" - очень понравилось. Толковые мысли. Заставляет задуматься. После него специально с ручкой села сама почитала библию. Ведь всё, что говорит (и не только он) чистая правда.
[Профиль]  [ЛС] 

МИТРА-ДОН

Стаж: 9 лет 9 месяцев

Сообщений: 146

МИТРА-ДОН · 04-Дек-13 02:37 (спустя 3 месяца 10 дней, ред. 17-Апр-14 19:08)

[Цитировать] 

Друзья у Юрия Гомонова вышло еще шесть лекций с летнего семинара на подходе еще одна, все лекции вы найдете на нашем сайте: Единая Веда.
После удаления восьми лекций с этого форума выкладывать здесь лекции не вижу смысла, смотрите лекции на нашем сайте или на нашем канале в Ютубе.
[Профиль]  [ЛС] 

obik2

Стаж: 8 лет 10 месяцев

Сообщений: 194


obik2 · 02-Сен-14 23:02 (спустя 8 месяцев)

[Цитировать] 

Может вернетесь?
[Профиль]  [ЛС] 

МИТРА-ДОН

Стаж: 9 лет 9 месяцев

Сообщений: 146

МИТРА-ДОН · 15-Сен-14 00:48 (спустя 12 дней)

[Цитировать] 

obik2 писал(а):
65015300Может вернетесь?
А надо? Сейчас можно прямо с Ютуба скачивать в любом формате, могу залить в облако мейла или на яндекс-диск.
[Профиль]  [ЛС] 
 
Ответить
Loading...
Error