Адрес РуТрекера для пользователей РФ - MainTracker.org

Расскажи друзьям:  

ЛСП feat. Oxxxymiron – Мне скучно жить (S E R E B R Y Λ K O V) [2015, RAP, TRAP, Master 1080p]

Страницы:  1

Ответить
Автор
Сообщение

NSerebryakov

Стаж: 3 года 4 месяца

Сообщений: 38

NSerebryakov · 25-Янв-15 04:26 (3 года 4 месяца назад, ред. 29-Апр-15 16:22)

ЛСП feat. Oxxxymiron – Мне скучно жить (S E R E B R Y Λ K O V)
Жанр: RAP, TRAP
Продолжительность: 03:51
Год выпуска: 2015
Описание: Клип ЛСП и Oxxxymiron под названием "Мне скучно жить"
Монтаж: Николай Серебряков
Качество: Master 1080p
Контейнер: MP4
Видео кодек: H.264
Аудио кодек: MP3
Видео: MP4, 1920x1080p, 22Mbs, 23,976fps
Аудио: mp3, 320kbs, 48.000Гц, Stereo
Отчёт MediaInfo / BDInfo
Общее
Полное имя : /Volumes/Verbatim/ЛСП feat. Oxxxymiron – Мне скучно жить (S E R E B R Y Λ K O V).mp4
Формат : MPEG-4
Профиль формата : Base Media / Version 2
Идентификатор кодека : mp42
Размер файла : 611 Мбайт
Продолжительность : 3 м. 51 с.
Режим общего битрейта : Переменный
Общий поток : 22,2 Мбит/сек
Название фильма : ЛСП feat. Oxxxymiron – Мне скучно жить (S E R E B R Y Λ K O V).mp4
Дата записи : 0
Дата кодирования : UTC 2015-01-24 10:35:49
Дата пометки : UTC 2015-01-24 10:35:55
©TIM : 00:00:00:00
©TSC : 24000
©TSZ : 1001
Видео
Идентификатор : 1
Формат : AVC
Формат/Информация : Advanced Video Codec
Профиль формата : Main@L4.1
Параметр CABAC формата : Да
Параметр ReFrames формата : 3 кадра
Идентификатор кодека : avc1
Идентификатор кодека/Информация : Advanced Video Coding
Продолжительность : 3 м. 51 с.
Битрейт : 21,9 Мбит/сек
Ширина : 1920 пикселей
Высота : 1080 пикселей
Соотношение сторон : 16:9
Режим частоты кадров : Постоянный
Частота кадров : 23,976 кадра/сек
Стандарт вещания : NTSC
Цветовое пространство : YUV
Субдискретизация насыщенности : 4:2:0
Битовая глубина : 8 бит
Тип развёртки : Прогрессивная
Бит/(Пиксели*Кадры) : 0.440
Размер потока : 602 Мбайт (99%)
Язык : English
Дата кодирования : UTC 2015-01-24 10:35:49
Дата пометки : UTC 2015-01-24 10:35:49
Основные цвета : BT.709
Характеристики трансфера : BT.709
Коэффициенты матрицы : BT.709
Аудио
Идентификатор : 2
Формат : AAC
Формат/Информация : Advanced Audio Codec
Профиль формата : LC
Идентификатор кодека : 40
Продолжительность : 3 м. 51 с.
Продолжительность оригинала : 3 м. 51 с.
Вид битрейта : Переменный
Битрейт : 317 Кбит/сек
Максимальный битрейт : 456 Кбит/сек
Каналы : 2 канала
Расположение каналов : Front: L R
Частота : 48,0 КГц
Метод сжатия : С потерями
Размер потока : 8,74 Мбайт (1%)
Размер потока оригинала : 8,74 Мбайт (1%)
Язык : English
Дата кодирования : UTC 2015-01-24 10:35:49
Дата пометки : UTC 2015-01-24 10:35:49
Скриншоты
Download
Чтобы скачать .torrent файл необходима регистрация
Сайт не распространяет и не хранит электронные версии произведений, а лишь предоставляет доступ к создаваемому пользователями каталогу ссылок на торрент-файлы, которые содержат только списки хеш-сумм
[Профиль]  [ЛС] 
 

SEVENТY

Стаж: 6 лет 9 месяцев

Сообщений: 107


SEVENТY · 02-Май-15 06:36 (спустя 3 месяца 8 дней)

[Цитировать] 

Я так понимаю, что это неофициальный клип?
[Профиль]  [ЛС] 

romch1k139

Стаж: 5 лет 6 месяцев

Сообщений: 2


romch1k139 · 06-Июл-15 12:13 (спустя 2 месяца 4 дня)

[Цитировать] 

Fabille писал(а):
67676413Я так понимаю, что это неофициальный клип?
все верно!
[Профиль]  [ЛС] 

Pasha-new

Стаж: 10 лет 4 месяца

Сообщений: 198

Pasha-new · 06-Авг-15 16:26 (спустя 1 месяц, ред. 06-Авг-15 16:26)

[Цитировать] 

Новый альбом Oxxxymiron'a лучше бы раздал.
[Профиль]  [ЛС] 

ByGreez

Стаж: 6 лет 5 месяцев

Сообщений: 1


ByGreez · 22-Сен-15 13:21 (спустя 1 месяц 15 дней)

[Цитировать] 

Pasha-new писал(а):
68454398Новый альбом Oxxxymiron'a лучше бы раздал.
А уже есть где? Вроде же презентация в октябре только.
[Профиль]  [ЛС] 

Erbol_007

Стаж: 3 года 10 месяцев

Сообщений: 7


Erbol_007 · 05-Фев-16 11:25 (спустя 4 месяца 12 дней)

[Цитировать] 

ребята раздачу "безумия" сделайте пожалуйста
если itunes edition с текстаки и обложками то ваще по кайфу
[Профиль]  [ЛС] 
 
Ответить
Loading...
Error