Адрес РуТрекера для пользователей РФ - MainTracker.org

Расскажи друзьям:  

"Городок" и "В Городке" - путеводитель

Страницы :   Пред.  1, 2, 3 ... 10, 11, 12

Ответить
Автор
Сообщение

SurvivorXXX

Стаж: 6 лет 8 месяцев

Сообщений: 175

SurvivorXXX · 29-Дек-16 19:39 (1 год 3 месяца назад)

[Цитировать] 

Artem Gaydar, спасибо большое за помошь!
[Профиль]  [ЛС] 

LTMMEXDIS

Стаж: 6 лет 3 месяца

Сообщений: 1191

LTMMEXDIS · 13-Июл-17 20:34 (спустя 6 месяцев, ред. 13-Июл-17 20:34)

[Цитировать] 

Кто знает что будет по УКрТВ - Интер? Наверно сукротитруют всё...
Суббота 15.07.2017
Время киевское.
09:00 "Городок"
10:00 Д/п "Нам его не хватает. Вспоминая Илью Олейникова"
11:00 "Городок"
...до 13:45
[Профиль]  [ЛС] 

вольд

Стаж: 8 лет 6 месяцев

Сообщений: 3


вольд · 22-Ноя-17 16:57 (спустя 4 месяца 8 дней)

[Цитировать] 

Добрый день. Очень прошу Вас встать на раздачу этой передачи. Заранее благодарен.
[Профиль]  [ЛС] 

Рамфоринх

Стаж: 1 год 11 месяцев

Сообщений: 692

Рамфоринх · 25-Ноя-17 19:52 (спустя 3 дня)

[Цитировать] 

Привет. После восстановления данных на харде обнаружил там все части "В Городке" в размере 5,16гб. Но такой раздачи уже нет. Возможно это была раздача для PSP (.mp4). Качество вполне нормальное:
Media Info
скрытый текст
В Городке (2002-2006)\V gorodke 001-015.DVDRip.mp4
Формат : MPEG-4
Профиль формата : Base Media
Идентификатор кодека : isom (isom/avc1)
Размер файла : 510 Мбайт
Продолжительность : 1 ч. 50 м.
Режим общего битрейта : Переменный
Общий поток : 643 Кбит/сек
Дата кодирования : UTC 2009-10-08 21:02:44
Дата пометки : UTC 2009-10-10 03:08:38
Обложка : Yes
Видео
Идентификатор : 1
Формат : AVC
Формат/Информация : Advanced Video Codec
Профиль формата : Baseline@L3
Параметр CABAC формата : Нет
Параметр ReFrames формата : 6 кадров
Идентификатор кодека : avc1
Идентификатор кодека/Информация : Advanced Video Coding
Продолжительность : 1 ч. 50 м.
Битрейт : 512 Кбит/сек
Максимальный битрейт : 1935 Кбит/сек
Ширина : 480 пикселей
Высота : 360 пикселей
Соотношение сторон : 4:3
Режим частоты кадров : Постоянный
Частота кадров : 25,000 кадров/сек
Цветовое пространство : YUV
Субдискретизация насыщенности : 4:2:0
Битовая глубина : 8 бит
Тип развёртки : Прогрессивная
Бит/(Пиксели*Кадры) : 0.119
Размер потока : 406 Мбайт (80%)
Библиотека кодирования : x264 core 65 r999kMod cc51047
Настройки программы : cabac=0 / ref=6 / deblock=1:-2:-1 / analyse=0x1:0x131 / me=umh / subme=7 / psy_rd=1.0:0.0 / mixed_ref=1 / me_range=16 / chroma_me=1 / trellis=0 / 8x8dct=0 / cqm=0 / deadzone=21,11 / chroma_qp_offset=-2 / threads=2 / thread_queue=2 / nr=0 / decimate=0 / mbaff=0 / bframes=0 / keyint=250 / keyint_min=25 / scenecut=40(pre) / rc=2pass / bitrate=512 / ratetol=1.0 / qcomp=0.60 / qpmin=10 / qpmax=51 / qpstep=4 / cplxblur=20.0 / qblur=0.5 / ip_ratio=1.40 / aq=1:1.00
Дата кодирования : UTC 2009-10-08 21:02:44
Дата пометки : UTC 2009-10-08 21:04:32
Аудио
Идентификатор : 2
Формат : AAC
Формат/Информация : Advanced Audio Codec
Профиль формата : LC
Идентификатор кодека : 40
Продолжительность : 1 ч. 50 м.
Вид битрейта : Переменный
Битрейт : 128 Кбит/сек
Максимальный битрейт : 170 Кбит/сек
Каналы : 2 канала
Расположение каналов : Front: L R
Частота : 48,0 КГц
Частота кадров : 46,875 кадров/сек (1024 spf)
Метод сжатия : С потерями
Размер потока : 102 Мбайт (20%)
Дата кодирования : UTC 2009-10-08 21:04:26
Дата пометки : UTC 2009-10-10 03:08:38
Если надо, обращайтесь, сделаю раздачу. Только определиться бы для псп это или нет.
[Профиль]  [ЛС] 
 
 
Ответить
Loading...
Error