(Folk / Traditional Music) Japanese Traditional Music (10 CD) - 1990, WAVPack (image+.cue), lossless

Страницы:  1

Ответить
Автор
Сообщение

Andy_J_K

Стаж: 10 лет

Сообщений: 10


Andy_J_K · 19-Май-09 23:10 (9 лет 5 месяцев назад, ред. 24-Окт-10 16:09)

Japanese Traditional Music (10 CD) Жанр: Folk / Traditional Music
Год выпуска диска: 1990
Производитель диска: Japan, King Records
Аудио кодек: WAVPack
Тип рипа: image+.cue
Битрейт аудио: lossless
Продолжительность: 11:07:47
CD1 - GAGAKU
Продолжительность: 01:07:09
Трек лист:
01. ETENRAKU - HYOUJOU NETORI (01:43)
02. ETENRAKU - ETENRAKU (09:44)
03. KISHUNRAKU - OUSHIKICHOU CHOUSHI (02:00)
04. KISHUNRAKU - KISHUNRAKU NO JO (13:40)
05. KISHUNRAKU - KISHUNRAKU NO HA (07:14)
06. SEIGAIHA - BANSHIKICHOU NETORI (01:17)
07. SEIGAIHA - SEIGAIHA (11:06)
08. KITOKU - KOMA ICHIKOTSUCHOU KONETORI (01:22)
09. KITOKU - KITOKU NO HA (08:41)
10. KITOKU - KITOKU NO KYUU (04:08)
11. AZUMAASOBI - MOTOMEKO NO UTADASHI (00:36)
12. AZUMAASOBI - MOTOMEKO NO UTA (05:38)
Log EAC
EAC extraction logfile from 6. October 2008, 10:44 for CD
Japanese Traditional Music / GAGAKU
Used drive : LITE-ON DVDRW SHM-165P6S Adapter: 1 ID: 1
Read mode : Secure with NO C2, accurate stream, disable cache
Read offset correction : 6
Overread into Lead-In and Lead-Out : No
Used output format : Internal WAV Routines
44.100 Hz; 16 Bit; Stereo
Other options :
Fill up missing offset samples with silence : Yes
Delete leading and trailing silent blocks : No
Installed external ASPI interface
Range status and errors
Selected range
Filename J:\MMT\Japanese Traditional Music - GAGAKU.wav
Peak level 95.6 %
Range quality 100.0 %
CRC 320DB040
Copy OK
No errors occured
End of status report
CUE Sheet
REM GENRE Folk
REM DATE 1990
REM DISCID A80FC30C
REM COMMENT "ExactAudioCopy v0.95b4"
PERFORMER "Japanese Traditional Music"
TITLE "GAGAKU"
FILE "Japanese Traditional Music - GAGAKU.wv" WAVE
TRACK 01 AUDIO
TITLE "ETENRAKU - HYOUJOU NETORI"
PERFORMER "Japanese Traditional Music"
INDEX 01 00:00:00
TRACK 02 AUDIO
TITLE "ETENRAKU - ETENRAKU"
PERFORMER "Japanese Traditional Music"
INDEX 00 01:41:23
INDEX 01 01:43:17
TRACK 03 AUDIO
TITLE "KISHUNRAKU - OUSHIKICHOU CHOUSHI"
PERFORMER "Japanese Traditional Music"
INDEX 00 11:22:39
INDEX 01 11:27:52
TRACK 04 AUDIO
TITLE "KISHUNRAKU - KISHUNRAKU NO JO"
PERFORMER "Japanese Traditional Music"
INDEX 00 13:27:08
INDEX 01 13:28:17
TRACK 05 AUDIO
TITLE "KISHUNRAKU - KISHUNRAKU NO HA"
PERFORMER "Japanese Traditional Music"
INDEX 00 27:07:58
INDEX 01 27:08:50
TRACK 06 AUDIO
TITLE "SEIGAIHA - BANSHIKICHOU NETORI"
PERFORMER "Japanese Traditional Music"
INDEX 00 34:18:56
INDEX 01 34:23:27
TRACK 07 AUDIO
TITLE "SEIGAIHA - SEIGAIHA"
PERFORMER "Japanese Traditional Music"
INDEX 00 35:40:16
INDEX 01 35:40:70
TRACK 08 AUDIO
TITLE "KITOKU - KOMA ICHIKOTSUCHOU KONETORI"
PERFORMER "Japanese Traditional Music"
INDEX 00 46:43:05
INDEX 01 46:47:42
TRACK 09 AUDIO
TITLE "KITOKU - KITOKU NO HA"
PERFORMER "Japanese Traditional Music"
INDEX 00 48:09:04
INDEX 01 48:10:30
TRACK 10 AUDIO
TITLE "KITOKU - KITOKU NO KYUU"
PERFORMER "Japanese Traditional Music"
INDEX 00 56:50:55
INDEX 01 56:52:05
TRACK 11 AUDIO
TITLE "AZUMAASOBI - MOTOMEKO NO UTADASHI"
PERFORMER "Japanese Traditional Music"
INDEX 00 60:56:21
INDEX 01 61:00:70
TRACK 12 AUDIO
TITLE "AZUMAASOBI - MOTOMEKO NO UTA"
PERFORMER "Japanese Traditional Music"
INDEX 00 61:36:34
INDEX 01 61:37:37
CD2 - NOUGAKU
Продолжительность: 01:02:15
Трек лист:
01. OSHIRABE - SANBASOU (02:01)
02. MOMI NO DAN (08:09)
03. SUZU NO DAN (08:04)
04. JO NO MAI (TAIKO IRI) (11:40)
05. CHUU NO MAI (TAIKO IRI) (06:08)
06. HAYA MAI (05:55)
07. SHIMO NO TAKANE (03:27)
08. KAGURA (10:10)
09. SHISHI [SHAKKYOU] YORI (06:41)
Log EAC
EAC extraction logfile from 12. October 2008, 9:23 for CD
Japanese Traditional Music / NOUGAKU
Used drive : LITE-ON DVDRW SHM-165P6S Adapter: 1 ID: 1
Read mode : Secure with NO C2, accurate stream, disable cache
Read offset correction : 6
Overread into Lead-In and Lead-Out : No
Used output format : Internal WAV Routines
44.100 Hz; 16 Bit; Stereo
Other options :
Fill up missing offset samples with silence : Yes
Delete leading and trailing silent blocks : No
Installed external ASPI interface
Range status and errors
Selected range
Filename J:\MMT\Japanese Traditional Music - NOUGAKU.wav
Peak level 100.0 %
Range quality 99.9 %
CRC AC76CF75
Copy OK
No errors occured
End of status report
CUE Sheet
REM GENRE Folklore
REM DATE 1990
REM DISCID 730E9A09
REM COMMENT "ExactAudioCopy v0.95b4"
PERFORMER "Japanese Traditional Music"
TITLE "NOUGAKU"
FILE "Japanese Traditional Music - NOUGAKU.wv" WAVE
TRACK 01 AUDIO
TITLE "OSHIRABE - SANBASOU"
PERFORMER "Japanese Traditional Music"
INDEX 01 00:00:00
TRACK 02 AUDIO
TITLE "MOMI NO DAN"
PERFORMER "Japanese Traditional Music"
INDEX 00 01:58:62
INDEX 01 02:01:05
TRACK 03 AUDIO
TITLE "SUZU NO DAN"
PERFORMER "Japanese Traditional Music"
INDEX 00 10:08:34
INDEX 01 10:10:12
TRACK 04 AUDIO
TITLE "JO NO MAI (TAIKO IRI)"
PERFORMER "Japanese Traditional Music"
INDEX 00 18:12:54
INDEX 01 18:14:37
TRACK 05 AUDIO
TITLE "CHUU NO MAI (TAIKO IRI)"
PERFORMER "Japanese Traditional Music"
INDEX 00 29:52:61
INDEX 01 29:54:42
TRACK 06 AUDIO
TITLE "HAYA MAI"
PERFORMER "Japanese Traditional Music"
INDEX 00 36:02:15
INDEX 01 36:03:40
TRACK 07 AUDIO
TITLE "SHIMO NO TAKANE"
PERFORMER "Japanese Traditional Music"
INDEX 00 41:56:18
INDEX 01 41:58:45
TRACK 08 AUDIO
TITLE "KAGURA"
PERFORMER "Japanese Traditional Music"
INDEX 00 45:25:12
INDEX 01 45:26:37
TRACK 09 AUDIO
TITLE "SHISHI [SHAKKYOU] YORI"
PERFORMER "Japanese Traditional Music"
INDEX 00 55:35:41
INDEX 01 55:36:67
CD3 - KABUKI
Продолжительность: 01:14:28
Трек лист:
01. Act I - The Kabuki-Play -Kanjincho- is based on the Noh-Play -Ataka- and depicts (03:24)
02. Act II - the Flight of General Minamoto Yoshitsune from his Brother (21:07)
03. Act III - which is Shogun Yoritomo after the Two had a falling out (12:56)
04. Act IV - On his Journey - Yoshitsune is saved many times by the Strength (11:55)
05. Act V - and Resourcefulness of his Companion - the powerful Priest Benkei (04:37)
06. Act VI - A Last Great Example of Nagauta Music - it contains Noh-Style chanting and Pure Nagauta (05:36)
07. Act VII - The Drama of this Play is created by the Relationship of (07:19)
08. Act VIII - The strong Tones of Benkei - the gentle Elegance of Yoshitsune and the Nobility of Togashi (07:34)
Log EAC
EAC extraction logfile from 26. October 2008, 9:35 for CD
Japanese Traditional Music / KABUKI
Used drive : LITE-ON DVDRW SHM-165P6S Adapter: 1 ID: 1
Read mode : Secure with NO C2, accurate stream, disable cache
Read offset correction : 6
Overread into Lead-In and Lead-Out : No
Used output format : Internal WAV Routines
44.100 Hz; 16 Bit; Stereo
Other options :
Fill up missing offset samples with silence : Yes
Delete leading and trailing silent blocks : No
Installed external ASPI interface
Range status and errors
Selected range
Filename J:\MMT\Japanese Traditional Music - KABUKI.wav
Peak level 100.0 %
Range quality 99.9 %
CRC 62B44AC6
Copy OK
No errors occured
End of status report
CUE Sheet
REM DISCID 64117708
REM COMMENT "ExactAudioCopy v0.95b4"
PERFORMER "Various"
TITLE "Kabuki "Kanjincho" - Japanese Traditional Music "
FILE "Japanese Traditional Music - KABUKI.wv" WAVE
TRACK 01 AUDIO
TITLE "Act I - The Kabuki-Play -Kanjincho- is based on the Noh-Play -Ataka- and depicts"
PERFORMER "Various"
INDEX 01 00:00:00
TRACK 02 AUDIO
TITLE "Act II - the Flight of General Minamoto Yoshitsune from his Brother"
PERFORMER "Various"
INDEX 01 03:24:25
TRACK 03 AUDIO
TITLE "Act III - which is Shogun Yoritomo after the Two had a falling out"
PERFORMER "Various"
INDEX 00 24:32:08
INDEX 01 24:32:22
TRACK 04 AUDIO
TITLE "Act IV - On his Journey - Yoshitsune is saved many times by the Strength"
PERFORMER "Various"
INDEX 01 37:28:45
TRACK 05 AUDIO
TITLE "Act V - and Resourcefulness of his Companion - the powerful Priest Benkei"
PERFORMER "Various"
INDEX 01 49:24:15
TRACK 06 AUDIO
TITLE "Act VI - A Last Great Example of Nagauta Music - it contains Noh-Style chanting and Pure Nagauta"
PERFORMER "Various"
INDEX 00 54:01:57
INDEX 01 54:01:60
TRACK 07 AUDIO
TITLE "Act VII - The Drama of this Play is created by the Relationship of"
PERFORMER "Various"
INDEX 00 59:38:26
INDEX 01 59:38:35
TRACK 08 AUDIO
TITLE "Act VIII - The strong Tones of Benkei - the gentle Elegance of Yoshitsune and the Nobility of Togashi"
PERFORMER "Various"
INDEX 01 66:57:55
CD4 - BIWA
Продолжительность: 01:03:11
Трек лист:
01. haru no utage yori (07:33)
02. chikuzen shoukyoku (08:03)
03. kawanakajima (15:32)
04. atsumori (18:47)
05. gion shouja (05:32)
06. gion shouja (07:44)
Log EAC
EAC extraction logfile from 26. October 2008, 12:12 for CD
Japanese Traditional Music / BIWA
Used drive : LITE-ON DVDRW SHM-165P6S Adapter: 1 ID: 1
Read mode : Secure with NO C2, accurate stream, disable cache
Read offset correction : 6
Overread into Lead-In and Lead-Out : No
Used output format : Internal WAV Routines
44.100 Hz; 16 Bit; Stereo
Other options :
Fill up missing offset samples with silence : Yes
Delete leading and trailing silent blocks : No
Installed external ASPI interface
Range status and errors
Selected range
Filename J:\MMT\Japanese Traditional Music - BIWA.wav
Peak level 100.0 %
Range quality 100.0 %
CRC 5E228C2B
Copy OK
No errors occured
End of status report
CUE Sheet
REM GENRE Folk
REM DATE 1990
REM DISCID 5D0ED106
REM COMMENT "ExactAudioCopy v0.95b4"
PERFORMER "Japanese Traditional Music"
TITLE "BIWA"
FILE "Japanese Traditional Music - BIWA.wv" WAVE
TRACK 01 AUDIO
TITLE "haru no utage yori"
PERFORMER "Japanese Traditional Music"
INDEX 01 00:00:00
TRACK 02 AUDIO
TITLE "chikuzen shoukyoku"
PERFORMER "Japanese Traditional Music"
INDEX 00 07:30:26
INDEX 01 07:33:25
TRACK 03 AUDIO
TITLE "kawanakajima"
PERFORMER "Japanese Traditional Music"
INDEX 00 15:33:44
INDEX 01 15:37:12
TRACK 04 AUDIO
TITLE "atsumori"
PERFORMER "Japanese Traditional Music"
INDEX 00 31:05:44
INDEX 01 31:09:32
TRACK 05 AUDIO
TITLE "gion shouja"
PERFORMER "Japanese Traditional Music"
INDEX 00 49:53:31
INDEX 01 49:57:27
TRACK 06 AUDIO
TITLE "gion shouja"
PERFORMER "Japanese Traditional Music"
INDEX 00 55:26:57
INDEX 01 55:29:55
CD5 - Shakuhachi
Продолжительность: 00:59:56
Трек лист:
01. Shika No Tone (09:01)
02. Hifumi - Hachigaeshi No Shirabe (09:48)
03. Sanya Sugagaki (07:16)
04. Tsuru No Sugomori (10:44)
05. Umibe No Yubae (06:20)
06. Toge Hachiri (07:06)
07. Kojo No Tsuki (09:41)
Log EAC
EAC extraction logfile from 8. November 2008, 8:58 for CD
Japanese Traditional Music / Shakuhachi
Used drive : LITE-ON DVDRW SHM-165P6S Adapter: 1 ID: 1
Read mode : Secure with NO C2, accurate stream, disable cache
Read offset correction : 6
Overread into Lead-In and Lead-Out : No
Used output format : Internal WAV Routines
44.100 Hz; 16 Bit; Stereo
Other options :
Fill up missing offset samples with silence : Yes
Delete leading and trailing silent blocks : No
Installed external ASPI interface
Range status and errors
Selected range
Filename J:\MMT\Japanese Traditional Music - Shakuhachi.wav
Peak level 70.3 %
Range quality 100.0 %
CRC 776A557B
Copy OK
No errors occured
End of status report
CUE Sheet
REM GENRE Folk
REM DATE 1990
REM DISCID 490E1007
REM COMMENT "ExactAudioCopy v0.95b4"
PERFORMER "Japanese Traditional Music"
TITLE "Shakuhachi"
FILE "Japanese Traditional Music - Shakuhachi.wv" WAVE
TRACK 01 AUDIO
TITLE "Shika No Tone"
PERFORMER "Japanese Traditional Music"
INDEX 01 00:00:00
TRACK 02 AUDIO
TITLE "Hifumi - Hachigaeshi No Shirabe"
PERFORMER "Japanese Traditional Music"
INDEX 00 08:59:14
INDEX 01 09:01:27
TRACK 03 AUDIO
TITLE "Sanya Sugagaki"
PERFORMER "Japanese Traditional Music"
INDEX 00 18:48:16
INDEX 01 18:50:15
TRACK 04 AUDIO
TITLE "Tsuru No Sugomori"
PERFORMER "Japanese Traditional Music"
INDEX 00 26:04:40
INDEX 01 26:06:45
TRACK 05 AUDIO
TITLE "Umibe No Yubae"
PERFORMER "Japanese Traditional Music"
INDEX 00 36:49:43
INDEX 01 36:51:25
TRACK 06 AUDIO
TITLE "Toge Hachiri"
PERFORMER "Japanese Traditional Music"
INDEX 00 43:09:70
INDEX 01 43:11:67
TRACK 07 AUDIO
TITLE "Kojo No Tsuki"
PERFORMER "Japanese Traditional Music"
INDEX 00 50:16:17
INDEX 01 50:18:35
CD6 - Sou
Продолжительность: 01:04:31
Трек лист:
01. Rokudan (06:26)
02. Midare (07:46)
03. Godan - Ginuta (17:19)
04. Chidori No Kyoku (13:45)
05. Aki No Kyoku (19:15)
Log EAC
EAC extraction logfile from 8. November 2008, 9:39 for CD
Japanese Traditional Music / Sou
Used drive : LITE-ON DVDRW SHM-165P6S Adapter: 1 ID: 1
Read mode : Secure with NO C2, accurate stream, disable cache
Read offset correction : 6
Overread into Lead-In and Lead-Out : No
Used output format : Internal WAV Routines
44.100 Hz; 16 Bit; Stereo
Other options :
Fill up missing offset samples with silence : Yes
Delete leading and trailing silent blocks : No
Installed external ASPI interface
Range status and errors
Selected range
Filename J:\MMT\Japanese Traditional Music - Sou.wav
Peak level 79.8 %
Range quality 100.0 %
CRC 516A5B46
Copy OK
No errors occured
End of status report
CUE Sheet
REM GENRE "National Folk"
REM DATE 1990
REM DISCID 500F2105
REM COMMENT "ExactAudioCopy v0.95b4"
PERFORMER "Japanese Traditional Music"
TITLE "Sou"
FILE "Japanese Traditional Music - Sou.wv" WAVE
TRACK 01 AUDIO
TITLE "Rokudan"
PERFORMER "Japanese Traditional Music"
INDEX 01 00:00:00
TRACK 02 AUDIO
TITLE "Midare"
PERFORMER "Japanese Traditional Music"
INDEX 00 06:24:51
INDEX 01 06:26:70
TRACK 03 AUDIO
TITLE "Godan - Ginuta"
PERFORMER "Japanese Traditional Music"
INDEX 00 14:11:11
INDEX 01 14:13:02
TRACK 04 AUDIO
TITLE "Chidori No Kyoku"
PERFORMER "Japanese Traditional Music"
INDEX 00 31:29:70
INDEX 01 31:32:07
TRACK 05 AUDIO
TITLE "Aki No Kyoku"
PERFORMER "Japanese Traditional Music"
INDEX 00 45:15:43
INDEX 01 45:17:22
CD7 - Sankyoku
Продолжительность: 01:14:27
Трек лист:
01. yaegoromo (28:52)
02. hagi no tsuyu (18:44)
03. sho-chiku-bai (26:51)
Log EAC
EAC extraction logfile from 8. November 2008, 10:22 for CD
Traditional Japanese Music / Sankyoku
Used drive : LITE-ON DVDRW SHM-165P6S Adapter: 1 ID: 1
Read mode : Secure with NO C2, accurate stream, disable cache
Read offset correction : 6
Overread into Lead-In and Lead-Out : No
Used output format : Internal WAV Routines
44.100 Hz; 16 Bit; Stereo
Other options :
Fill up missing offset samples with silence : Yes
Delete leading and trailing silent blocks : No
Installed external ASPI interface
Range status and errors
Selected range
Filename J:\MMT\Traditional Japanese Music - Sankyoku.wav
Peak level 95.6 %
Range quality 100.0 %
CRC 5901730E
Copy OK
No errors occured
End of status report
CUE Sheet
REM GENRE "National Folk"
REM DATE 1990
REM DISCID 28117403
REM COMMENT "ExactAudioCopy v0.95b4"
PERFORMER "Traditional Japanese Music"
TITLE "Sankyoku"
FILE "Traditional Japanese Music - Sankyoku.wv" WAVE
TRACK 01 AUDIO
TITLE "yaegoromo"
PERFORMER "Traditional Japanese Music"
INDEX 01 00:00:00
TRACK 02 AUDIO
TITLE "hagi no tsuyu"
PERFORMER "Traditional Japanese Music"
INDEX 00 28:51:16
INDEX 01 28:52:12
TRACK 03 AUDIO
TITLE "sho-chiku-bai"
PERFORMER "Traditional Japanese Music"
INDEX 00 47:33:13
INDEX 01 47:36:67
CD8 - Shamisen I
Продолжительность: 01:08:25
Трек лист:
01. Gidayuu; Kiyari Ondo (10:05)
02. Gidayuu; Nozakimura no Dan (04:32)
03. Kiyomoto; Kanda Matsuri (15:48)
04. Tokiwazu; Yuuzuki Sendou (10:38)
05. Shin-nai; Akegarasu (09:41)
06. Shin-nai; Ranchou (14:06)
07. Shin-nai; Nagashi (03:35)
Log EAC
EAC extraction logfile from 15. November 2008, 13:51 for CD
Japanese Traditional Music / Shamisen I
Used drive : LITE-ON DVDRW SHM-165P6S Adapter: 1 ID: 1
Read mode : Secure with NO C2, accurate stream, disable cache
Read offset correction : 6
Overread into Lead-In and Lead-Out : No
Used output format : Internal WAV Routines
44.100 Hz; 16 Bit; Stereo
Other options :
Fill up missing offset samples with silence : Yes
Delete leading and trailing silent blocks : No
Installed external ASPI interface
Range status and errors
Selected range
Filename J:\MMT\Japanese Traditional Music - Shamisen I.wav
Peak level 100.0 %
Range quality 100.0 %
CRC CF7812ED
Copy OK
No errors occured
End of status report
CUE Sheet
REM GENRE Folk
REM DATE 1990
REM DISCID 70100B07
REM COMMENT "ExactAudioCopy v0.95b4"
PERFORMER "Japanese Traditional Music"
TITLE "Shamisen I"
FILE "Japanese Traditional Music - Shamisen I.wv" WAVE
TRACK 01 AUDIO
TITLE "Gidayuu; Kiyari Ondo"
PERFORMER "Japanese Traditional Music"
INDEX 01 00:00:00
TRACK 02 AUDIO
TITLE "Gidayuu; Nozakimura no Dan"
PERFORMER "Japanese Traditional Music"
INDEX 00 10:03:39
INDEX 01 10:05:17
TRACK 03 AUDIO
TITLE "Kiyomoto; Kanda Matsuri"
PERFORMER "Japanese Traditional Music"
INDEX 00 14:35:33
INDEX 01 14:37:42
TRACK 04 AUDIO
TITLE "Tokiwazu; Yuuzuki Sendou"
PERFORMER "Japanese Traditional Music"
INDEX 00 30:23:67
INDEX 01 30:25:57
TRACK 05 AUDIO
TITLE "Shin-nai; Akegarasu"
PERFORMER "Japanese Traditional Music"
INDEX 00 41:02:21
INDEX 01 41:04:25
TRACK 06 AUDIO
TITLE "Shin-nai; Ranchou"
PERFORMER "Japanese Traditional Music"
INDEX 00 50:43:23
INDEX 01 50:45:27
TRACK 07 AUDIO
TITLE "Shin-nai; Nagashi"
PERFORMER "Japanese Traditional Music"
INDEX 00 64:49:55
INDEX 01 64:51:60
CD9 - Shamisen II
Продолжительность: 01:12:17
Трек лист:
01. NAGAUTA; GENROKU HANAMI ODORI (18:39)
02. HAUTA; HARUSAME (03:35)
03. HAUTA; UME WA SAITAKA (03:31)
04. KOUTA; YOZAKURA (01:48)
05. KOUTA; HARA NO TATSUTOKYA (01:03)
06. ZOKKYOKU; SANOSA (02:50)
07. ZOKKYOKU; KIYARI KUZUSHI (03:45)
08. ZOKKYOKU; DODOITSU (04:40)
09. JIUTA; YUKI (12:47)
10. JIUTA-SAKUMONO; KYOKUNEZUMI (19:39)
Log EAC
EAC extraction logfile from 15. November 2008, 14:44 for CD
Japanese Traditional Music / Shamisen II
Used drive : LITE-ON DVDRW SHM-165P6S Adapter: 1 ID: 1
Read mode : Secure with NO C2, accurate stream, disable cache
Read offset correction : 6
Overread into Lead-In and Lead-Out : No
Used output format : Internal WAV Routines
44.100 Hz; 16 Bit; Stereo
Other options :
Fill up missing offset samples with silence : Yes
Delete leading and trailing silent blocks : No
Installed external ASPI interface
Range status and errors
Selected range
Filename J:\MMT\Japanese Traditional Music - Shamisen II.wav
Peak level 100.0 %
Range quality 100.0 %
CRC C97D5A7A
Copy OK
No errors occured
End of status report
CUE Sheet
REM GENRE Folk
REM DATE 1990
REM DISCID 8010F50A
REM COMMENT "ExactAudioCopy v0.95b4"
PERFORMER "Japanese Traditional Music"
TITLE "Shamisen II"
FILE "Japanese Traditional Music - Shamisen II.wv" WAVE
TRACK 01 AUDIO
TITLE "NAGAUTA; GENROKU HANAMI ODORI"
PERFORMER "Japanese Traditional Music"
INDEX 01 00:00:00
TRACK 02 AUDIO
TITLE "HAUTA; HARUSAME"
PERFORMER "Japanese Traditional Music"
INDEX 00 18:35:72
INDEX 01 18:39:00
TRACK 03 AUDIO
TITLE "HAUTA; UME WA SAITAKA"
PERFORMER "Japanese Traditional Music"
INDEX 00 22:11:50
INDEX 01 22:14:12
TRACK 04 AUDIO
TITLE "KOUTA; YOZAKURA"
PERFORMER "Japanese Traditional Music"
INDEX 00 25:43:16
INDEX 01 25:46:02
TRACK 05 AUDIO
TITLE "KOUTA; HARA NO TATSUTOKYA"
PERFORMER "Japanese Traditional Music"
INDEX 00 27:31:70
INDEX 01 27:34:45
TRACK 06 AUDIO
TITLE "ZOKKYOKU; SANOSA"
PERFORMER "Japanese Traditional Music"
INDEX 00 28:35:42
INDEX 01 28:38:32
TRACK 07 AUDIO
TITLE "ZOKKYOKU; KIYARI KUZUSHI"
PERFORMER "Japanese Traditional Music"
INDEX 00 31:26:07
INDEX 01 31:28:50
TRACK 08 AUDIO
TITLE "ZOKKYOKU; DODOITSU"
PERFORMER "Japanese Traditional Music"
INDEX 00 35:12:31
INDEX 01 35:14:07
TRACK 09 AUDIO
TITLE "JIUTA; YUKI"
PERFORMER "Japanese Traditional Music"
INDEX 00 39:53:11
INDEX 01 39:54:67
TRACK 10 AUDIO
TITLE "JIUTA-SAKUMONO; KYOKUNEZUMI"
PERFORMER "Japanese Traditional Music"
INDEX 00 52:40:48
INDEX 01 52:42:50
CD10 - Percussion
Продолжительность: 01:00:34
Трек лист:
01. Daitenryuu (05:25)
02. Suwa-Ikazuchi (11:23)
03. Gojinjou-Daiko (06:17)
04. Gion-Bayashi (02:45)
05. Kanda-Bayashi (13:29)
06. Sawara-Bayashi (03:03)
07. Chichibu-Yatai-Bayashi (18:12)
Log EAC
EAC extraction logfile from 15. November 2008, 15:21 for CD
Japanese Traditional Music / Percussion
Used drive : LITE-ON DVDRW SHM-165P6S Adapter: 1 ID: 1
Read mode : Secure with NO C2, accurate stream, disable cache
Read offset correction : 6
Overread into Lead-In and Lead-Out : No
Used output format : Internal WAV Routines
44.100 Hz; 16 Bit; Stereo
Other options :
Fill up missing offset samples with silence : Yes
Delete leading and trailing silent blocks : No
Installed external ASPI interface
Range status and errors
Selected range
Filename J:\MMT\Japanese Traditional Music - Percussion.wav
Peak level 99.9 %
Range quality 100.0 %
CRC 131AFBF7
Copy OK
No errors occured
End of status report
CUE Sheet
REM GENRE "National Folk"
REM DATE 1990
REM DISCID 540E3607
REM COMMENT "ExactAudioCopy v0.95b4"
PERFORMER "Japanese Traditional Music"
TITLE "Percussion"
FILE "Japanese Traditional Music - Percussion.wv" WAVE
TRACK 01 AUDIO
TITLE "Daitenryuu"
PERFORMER "Japanese Traditional Music"
INDEX 01 00:00:00
TRACK 02 AUDIO
TITLE "Suwa-Ikazuchi"
PERFORMER "Japanese Traditional Music"
INDEX 00 05:21:49
INDEX 01 05:25:57
TRACK 03 AUDIO
TITLE "Gojinjou-Daiko"
PERFORMER "Japanese Traditional Music"
INDEX 00 16:45:25
INDEX 01 16:49:30
TRACK 04 AUDIO
TITLE "Gion-Bayashi"
PERFORMER "Japanese Traditional Music"
INDEX 00 23:03:38
INDEX 01 23:06:47
TRACK 05 AUDIO
TITLE "Kanda-Bayashi"
PERFORMER "Japanese Traditional Music"
INDEX 00 25:48:35
INDEX 01 25:52:17
TRACK 06 AUDIO
TITLE "Sawara-Bayashi"
PERFORMER "Japanese Traditional Music"
INDEX 00 39:18:22
INDEX 01 39:21:52
TRACK 07 AUDIO
TITLE "Chichibu-Yatai-Bayashi"
PERFORMER "Japanese Traditional Music"
INDEX 00 42:22:26
INDEX 01 42:25:27



Download
Чтобы скачать .torrent файл необходима регистрация
Сайт не распространяет и не хранит электронные версии произведений, а лишь предоставляет доступ к создаваемому пользователями каталогу ссылок на торрент-файлы, которые содержат только списки хеш-сумм
[Профиль]  [ЛС] 
 

komuso

Стаж: 9 лет 11 месяцев

Сообщений: 20


komuso · 20-Май-09 12:00 (спустя 12 часов)

[Цитировать] 

Спасибо! Японская музыка редкость, и тут такой замечательный релиз.
[Профиль]  [ЛС] 

Техник

VIP (Заслуженный)

Стаж: 10 лет 10 месяцев

Сообщений: 1849

Техник · 21-Май-09 22:37 (спустя 1 день 10 часов)

[Цитировать] 

Несмотря на то что релиз из сети все параметры рипа в норме. Можно узнать источник (ed2k, dc++, what.cd или др?)?
Пожалуй помещу в шапку.
[Профиль]  [ЛС] 

Andy_J_K

Стаж: 10 лет

Сообщений: 10


Andy_J_K · 23-Май-09 13:54 (спустя 1 день 15 часов)

[Цитировать] 

Техник писал(а):
Несмотря на то что релиз из сети все параметры рипа в норме. Можно узнать источник (ed2k, dc++, what.cd или др?)?
Это из ed2k.
[Профиль]  [ЛС] 

Vyorf

Стаж: 9 лет 11 месяцев

Сообщений: 77


Vyorf · 04-Июл-09 02:23 (спустя 1 месяц 11 дней)

[Цитировать] 

А есть у кого это же только в mp3 а то у меня очень медленное соединение, я три гига неделю тянуть буду. Пожалуйста выложите в битрейте 320 кб/с очень прошу.
Был бы очень признателен.
[Профиль]  [ЛС] 

Neko_Land

Стаж: 10 лет

Сообщений: 46

Neko_Land · 09-Сен-09 14:50 (спустя 2 месяца 5 дней)

[Цитировать] 

Бесподобно! Спасибо большое за такую коллекцию!
[Профиль]  [ЛС] 

Hollow Ichigo

Консольщик

Стаж: 11 лет 6 месяцев

Сообщений: 6199

Hollow Ichigo · 12-Янв-11 20:09 (спустя 1 год 4 месяца)

[Цитировать] 

Если это то, о чём я думаю, то позвольте мне расцеловать релизера *_*
[Профиль]  [ЛС] 

yra660

Стаж: 7 лет 6 месяцев

Сообщений: 1

yra660 · 11-Апр-11 09:23 (спустя 2 месяца 29 дней)

[Цитировать] 

огромный респект!
случайно купил в Литве диск Gagaku,потрясающая музыка, но большего у них не оказалось.
даже не надеялся!, а тут весь выпуск, просто не верится. еще раз Спасибо!
[Профиль]  [ЛС] 

holokostya

Стаж: 9 лет 10 месяцев

Сообщений: 215

holokostya · 28-Дек-11 22:09 (спустя 8 месяцев)

[Цитировать] 

Vyorf писал(а):
А есть у кого это же только в mp3 а то у меня очень медленное соединение, я три гига неделю тянуть буду. Пожалуйста выложите в битрейте 320 кб/с очень прошу.
Был бы очень признателен.
http://1.maintracker.org/forum/viewtopic.php?t=2914377
[Профиль]  [ЛС] 

dfu93200

Стаж: 6 лет 1 месяц

Сообщений: 1


dfu93200 · 09-Сен-12 12:08 (спустя 8 месяцев)

[Цитировать] 

A big thanks
[Профиль]  [ЛС] 

iturribarrigorri

Стаж: 6 лет

Сообщений: 28


iturribarrigorri · 17-Июл-13 19:01 (спустя 10 месяцев)

[Цитировать] 

Hey man :
Thank you very much from Spain.
Itu
[Профиль]  [ЛС] 

dsch1943

Стаж: 4 года 10 месяцев

Сообщений: 31

dsch1943 · 27-Дек-13 11:04 (спустя 5 месяцев 9 дней)

[Цитировать] 

Спасибо!
[Профиль]  [ЛС] 

carmatope

Стаж: 5 лет 5 месяцев

Сообщений: 37


carmatope · 27-Мар-14 22:37 (спустя 3 месяца)

[Цитировать] 

Al día de hoy las seeds están inactivas. Sigo intentando
Today the seeds are inactive. I keep trying
На сегодняшний день семена неактивны. Я все пытаюсь
[Профиль]  [ЛС] 

svetlii7f

Стаж: 8 лет 6 месяцев

Сообщений: 90

svetlii7f · 09-Ноя-14 13:53 (спустя 7 месяцев, ред. 09-Ноя-14 13:53)

[Цитировать] 

семена что надо!
дают под 0,5 мб/с стабильно.
[Профиль]  [ЛС] 

LonVert

Стаж: 6 лет

Сообщений: 1102

LonVert · 11-Ноя-14 17:50 (спустя 2 дня 3 часа)

[Цитировать] 

Как давно это было!!! Си-Ди болванки были синими с рабочей стороны, да на 650 Мб... И подогнал товарищ "PERCUSSION", и как долго и мучительно пытался я его скопировать... Увы, Clone CD был мне неведом, как и другому товарищу - с пишущим СиДи-Ромом (дорогая штука по тем временам!!!) Домо Аригато!!!
[Профиль]  [ЛС] 

quadrofx8100

Стаж: 8 лет 3 месяца

Сообщений: 25


quadrofx8100 · 03-Янв-17 13:33 (спустя 2 года 1 месяц)

[Цитировать] 

Благодарю за материал!
[Профиль]  [ЛС] 

LonVert

Стаж: 6 лет

Сообщений: 1102

LonVert · 06-Янв-17 18:22 (спустя 3 дня)

[Цитировать] 

quadrofx8100 писал(а):
72155450Благодарю за материал!
- "Если зажигают звёзды, значит, это кому-то нужно..." Если качают 10CD - значит, это ТОЖЕ кому-то нужно! Я не одинок в этом мире! ( Маски-шоу "На необитаемом острове")
[Профиль]  [ЛС] 

Гуманоид

Стаж: 9 лет 9 месяцев

Сообщений: 110

Гуманоид · 20-Июн-17 21:19 (спустя 5 месяцев 14 дней, ред. 22-Июн-17 09:10)

[Цитировать] 

Аригато!!!
[Профиль]  [ЛС] 

kate wiserspoon

Стаж: 8 лет 8 месяцев

Сообщений: 16

kate wiserspoon · 19-Фев-18 13:25 (спустя 7 месяцев)

[Цитировать] 

Здравствуйте! Есть кто-нибудь на раздаче? Очень хочется послушать эти записи.
[Профиль]  [ЛС] 

LonVert

Стаж: 6 лет

Сообщений: 1102

LonVert · 19-Фев-18 16:08 (спустя 2 часа 43 мин., ред. 19-Фев-18 16:08)

[Цитировать] 

kate wiserspoon писал(а):
74830660Здравствуйте! Есть кто-нибудь на раздаче? Очень хочется послушать эти записи.
- Мне надо немного времени, найти HDD и подключить... Ждите...
ПОДКЛЮЧЁН!
[Профиль]  [ЛС] 

Подлинный Cмазчик Бoб

Стаж: 6 лет 10 месяцев

Сообщений: 169


Подлинный Cмазчик Бoб · 14-Мар-18 15:40 (спустя 22 дня)

[Цитировать] 

Раздайте, плиз...
[Профиль]  [ЛС] 

LonVert

Стаж: 6 лет

Сообщений: 1102

LonVert · 16-Мар-18 15:30 (спустя 1 день 23 часа)

[Цитировать] 

Подлинный Cмазчик Бoб писал(а):
74982850Раздайте, плиз...

С момента запроса kate wiserspoon только я раздал 11 Gb... Вам совсем-совсем не досталось? А не пора настройки торрента уточнить?
[Профиль]  [ЛС] 

[email protected]

Хранитель

Стаж: 9 лет 8 месяцев

Сообщений: 437

[email protected] · 25-Май-18 20:45 (спустя 2 месяца 9 дней, ред. 25-Май-18 20:45)

[Цитировать] 

Внимание! Торрент-файл перезалит без изменения содержимого раздачи в связи с просьбой администрации снять флаг "Приватная раздача". Скачавшим ранее просьба перекачать торрент-файл, перехешировать содержимое и присоединиться к раздаче.
Оформление раздачи полностью переделано. Ссылки в "Другие выкладки" оставились из оригинальной темы, но спрятаны под спойлер
[Профиль]  [ЛС] 
 
Ответить
Loading...
Error