Адрес РуТрекера для пользователей РФ - MainTracker.org

Расскажи друзьям:  

Nicki Minaj - Anaconda [2014, Hip Hop/Pop/EDM, Master, 1080p]

Страницы:  1

Ответить
Автор
Сообщение

Beta&Ksi

Top Seed 04* 320r

Стаж: 8 лет 1 месяц

Сообщений: 1714

Beta&Ksi · 01-Авг-16 22:57 (1 год 9 месяцев назад)

Nicki Minaj - Anaconda Жанр: Hip Hop/Pop/EDM
Продолжительность: 00:04:49
Год выпуска: 2014
Описание: Да уж, это энергичное движение "пятой точки" вы еще не скоро забудете )) Бомба-хит "Anaconda" от рэп-дивы Nicki Minaj способна составить конкуренцию Jennifer Lopez, Kim Kardashian-West и Iggy Azalea (в плане самой большой части тела). Lil` Kim нового времени. Даже у рэппера Drake отпала челюсть и пропал дар речи, глядя на такой танец ))
Доп. информация: Клип выложен по просьбе пользователя Mar12gosha.
Качество: Master
Разрешение видео/развертка: 1080p
Контейнер: MPEG4
Видео кодек: AVC
Аудио кодек: AAC
Видео: 1920 x 1080 (1.778) at 23.976 fps AVC at 20,0 Мбит/сек
Аудио: 6 каналов, 48,0 КГц AAC at 637 Кбит/сек
Отчёт MediaInfo / BDInfo
Формат                                   : MPEG-4
Профиль формата : Base Media / Version 2
Идентификатор кодека : mp42 (mp42/mp41)
Размер файла : 713 Мбайт
Продолжительность : 4 м. 49 с.
Режим общего битрейта : Переменный
Общий поток : 20,6 Мбит/сек
©TIM : 00:00:00:00
©TSC : 24000
©TSZ : 1001
Видео
Идентификатор : 1
Формат : AVC
Формат/Информация : Advanced Video Codec
Профиль формата : High@L4.2
Параметр CABAC формата : Да
Параметр ReFrames формата : 3 кадра
Параметр GOP формата : M=3, N=23
Идентификатор кодека : avc1
Идентификатор кодека/Информация : Advanced Video Coding
Продолжительность : 4 м. 49 с.
Вид битрейта : Переменный
Битрейт : 20,0 Мбит/сек
Максимальный битрейт : 40,0 Мбит/сек
Ширина : 1920 пикселей
Высота : 1080 пикселей
Соотношение сторон : 16:9
Режим частоты кадров : Постоянный
Частота кадров : 23,976 (24000/1001) кадра/сек
Стандарт вещания : NTSC
Цветовое пространство : YUV
Субдискретизация насыщенности : 4:2:0
Битовая глубина : 8 бит
Тип развёртки : Прогрессивная
Бит/(Пиксели*Кадры) : 0.402
Размер потока : 691 Мбайт (97%)
Язык : English
Цветовой диапазон : Limited
Основные цвета : BT.709
Характеристики трансфера : BT.709
Коэффициенты матрицы : BT.709
Аудио
Идентификатор : 2
Формат : AAC
Формат/Информация : Advanced Audio Codec
Профиль формата : LC
Идентификатор кодека : 40
Продолжительность : 4 м. 49 с.
Продолжительность оригинала : 4 м. 49 с.
Вид битрейта : Переменный
Битрейт : 637 Кбит/сек
Максимальный битрейт : 788 Кбит/сек
Каналы : 6 каналов
Расположение каналов : Front: L C R, Side: L R, LFE
Частота : 48,0 КГц
Частота кадров : 46,875 кадров/сек (1024 spf)
Метод сжатия : С потерями
Размер потока : 22,0 Мбайт (3%)
Размер потока оригинала : 22,0 Мбайт (3%)
Язык : English
Скриншоты
Download
Чтобы скачать .torrent файл необходима регистрация
Сайт не распространяет и не хранит электронные версии произведений, а лишь предоставляет доступ к создаваемому пользователями каталогу ссылок на торрент-файлы, которые содержат только списки хеш-сумм
[Профиль]  [ЛС] 
 

Счастливый Человек

Стаж: 6 лет 7 месяцев

Сообщений: 192

Счастливый Человек · 30-Янв-17 17:08 (спустя 5 месяцев)

[Цитировать] 

Oh my gosh, look at her butt!
[Профиль]  [ЛС] 
 
Ответить
Loading...
Error