Адрес РуТрекера для пользователей РФ - MainTracker.org

Расскажи друзьям:  

Сваты 3 / Серии: 1-12 из 12 (Андрей Яковлев, Эдуард Радзюкевич) [2009, Комедия, HDTVRip]

Страницы:  1

Ответить
Автор
Сообщение

Мосенька

VIP (Заслуженный)

Стаж: 9 лет 11 месяцев

Сообщений: 4798

Мосенька · 15-Мар-13 13:40 (5 лет 2 месяца назад, ред. 15-Мар-13 18:12)


Сваты
Сезон 3, Серии 1-12 (12)

Год выпуска: 2009
Производство: Украина, Квартал-95
Жанр: Комедия
Продолжительность: 00:44:00
Режиссер: Андрей Яковлев, Эдуард Радзюкевич
В ролях: Людмила Артемьева, Анатолий Васильев (II), Татьяна Кравченко, Фёдор Добронравов, Николай Добрынин, Александр Игнатуша, София Стеценко, Семен Фурман, Маргарита Шубина, Даниил Белых, Дмитрий Оскин, Дмитрий Сова, Оксана Коляденко, Анатолий Барчук, Валентина Ильяшенко, Жанна Богдевич, Ольга Гришина, Светлана Прус, Виктория Авдеенко
Описание: Семейные пары Будько (типичных сельских жителей) и Ковалевых (городских интеллигентов) объединяет только одно - любовь к внучке Женечке! Ради нее они готовы терпеть все! Даже присутствие друг друга!
Молодые родители Женечки - Маша и Максим, уехав в Голландию, оставили в поселке дочку на попечение Будько. Ковалевы приезжают помочь присмотреть за любимой внучкой, а заодно подготовить ее к поступлению в лицей! Так под одной крышей оказываются две семьи - городская и деревенская...
Качество: HDTVRip
Формат: AVI
Видео кодек: XviD
Аудио кодек: AC3
Видео: 720x400 (16/9), 25.000 fps, 1850 Kbps (0.26 bit/pixel)
Аудио: 48.0 KHz, 2 ch, 192 Kbps

Исходник предоставил: stekJIovat
Рип: Мосенька
Все раздачи сериала |||| Sample
MI
Общее
Полное имя : I:\Сваты (Сезон 3) HDTVRip\Сваты 3.01.HDTVRip.Rutracker.org.avi
Формат : AVI
Формат/Информация : Audio Video Interleave
Размер файла : 700 Мбайт
Продолжительность : 48 м.
Общий поток : 2036 Кбит/сек
Программа кодирования : VirtualDubMod 1.5.10.3 | www.virtualdub-fr.org || (build 2550/release)
Библиотека кодирования : VirtualDubMod build 2550/release
Видео
Идентификатор : 0
Формат : MPEG-4 Visual
Профиль формата : Advanced Simple@L5
Параметр BVOP формата : 1
Параметр QPel формата : Нет
Параметр GMC формата : Без точки перехода
Параметр матрицы формата : Выборочная
Идентификатор кодека : XVID
Идентификатор кодека/Подсказка : XviD
Продолжительность : 48 м.
Битрейт : 1834 Кбит/сек
Ширина : 720 пикселей
Высота : 400 пикселей
Соотношение сторон : 16:9
Частота кадров : 25,000 кадров/сек
Цветовое пространство : YUV
Субдискретизация насыщенности : 4:2:0
Битовая глубина : 8 бит
Тип развёртки : Прогрессивная
Метод сжатия : С потерями
Бит/(Пиксели*Кадры) : 0.255
Размер потока : 630 Мбайт (90%)
Библиотека кодирования : XviD 63
Аудио
Идентификатор : 1
Формат : AC-3
Формат/Информация : Audio Coding 3
Расширение режима : CM (complete main)
Параметр Endianness формата : Big
Идентификатор кодека : 2000
Продолжительность : 48 м.
Вид битрейта : Постоянный
Битрейт : 192 Кбит/сек
Каналы : 2 канала
Расположение каналов : Front: L R
Частота : 48,0 КГц
Битовая глубина : 16 бит
Метод сжатия : С потерями
Размер потока : 66,0 Мбайт (9%)
Выравнивание : Разделение по промежуткам
Продолжительность промежутка : 40 мс. (1,00 видеокадр)
Время предзагрузки промежутка : 500 мс.

Download
Чтобы скачать .torrent файл необходима регистрация
Сайт не распространяет и не хранит электронные версии произведений, а лишь предоставляет доступ к создаваемому пользователями каталогу ссылок на торрент-файлы, которые содержат только списки хеш-сумм
[Профиль]  [ЛС] 
 

sao89

Top Seed 02* 80r

Стаж: 9 лет 11 месяцев

Сообщений: 387

sao89 · 21-Мар-13 03:10 (спустя 5 дней)

[Цитировать] 

Извините, а здесь вроде бы как был другой рилизер
[Профиль]  [ЛС] 

Fduch_RU

Стаж: 8 лет 11 месяцев

Сообщений: 46


Fduch_RU · 25-Мар-13 09:16 (спустя 4 дня)

[Цитировать] 

А где взять сезоны 1 и 2?
[Профиль]  [ЛС] 

Митяй Буханкин

Стаж: 7 лет 6 месяцев

Сообщений: 17

Митяй Буханкин · 25-Мар-13 10:23 (спустя 1 час 7 мин.)

[Цитировать] 

Fduch_RU писал(а):
58532026А где взять сезоны 1 и 2?
Может сначала Поиск заюзать?... там не сезоны, просто отдельные фильмы.
[Профиль]  [ЛС] 

Fduch_RU

Стаж: 8 лет 11 месяцев

Сообщений: 46


Fduch_RU · 27-Мар-13 08:55 (спустя 1 день 22 часа)

[Цитировать] 

Митяй Буханкин писал(а):
58532677
Fduch_RU писал(а):
58532026А где взять сезоны 1 и 2?
Может сначала Поиск заюзать?... там не сезоны, просто отдельные фильмы.
И как бы я без Вашей подсказки мог догадаться о том, что первого сезона нет?
Как можно тут что-либо скачивать не используя поиск?
[Профиль]  [ЛС] 

mtbstudio

Стаж: 8 лет 9 месяцев

Сообщений: 20

mtbstudio · 24-Апр-13 16:57 (спустя 28 дней)

[Цитировать] 

не стоит качать, я крайне расстроен тем, что россия канал обрезал каждую серию - что крайне непрятно!
[Профиль]  [ЛС] 

alex27077

Стаж: 8 лет 1 месяц

Сообщений: 1


alex27077 · 03-Июл-13 10:36 (спустя 2 месяца 8 дней)

[Цитировать] 

Fduch_RU писал(а):
58563490
Митяй Буханкин писал(а):
58532677
Fduch_RU писал(а):
58532026А где взять сезоны 1 и 2?
Может сначала Поиск заюзать?... там не сезоны, просто отдельные фильмы.
И как бы я без Вашей подсказки мог догадаться о том, что первого сезона нет?
Как можно тут что-либо скачивать не используя поиск?
Народ первый и второй сезоны есть,я смотрела. Там не отдельные фильмы там сериал
[Профиль]  [ЛС] 

snuge

Стаж: 6 лет 1 месяц

Сообщений: 2


snuge · 05-Июн-17 22:36 (спустя 3 года 11 месяцев)

[Цитировать] 

Прикольно,сериал в разделе ,,Русские сериалы,,,а производство - Украина.Почему?Почему в несоответствуещем разделе?
[Профиль]  [ЛС] 
 
Ответить
Loading...
Error