Адрес РуТрекера для пользователей РФ - 11.MainTracker.org

Расскажи друзьям:  

Загадки Бога 3 / Головоломки Бога 3 / God's quiz 3 / Shin-ui Quiz 3 [12/12] [2012, Криминал, медицина, комедия , HDTVRip] [400p]

Страницы:  1

Ответить
Автор
Сообщение

Ricka Gray

Стаж: 2 года

Сообщений: 45

Ricka Gray · 15-Янв-17 23:18 (1 год 10 месяцев назад, ред. 09-Мар-17 02:15)

Головоломки Бога 3
신의 퀴즈 시즌3

"Для нас редкие болезни, как загадки Бога. Загадки, которые удерживают нас, людей, от зазнайства и высокомерия"
Страна: Южная Корея
Год выпуска: 2012
Жанр: Криминал, медицина, комедия
Продолжительность: 12 серий из 12
Режиссер: Ан Джин У
В ролях:
Рю Док Хван - доктор Хан Чжин У
Чхве Чон У - профессор Чан Ге Тэ
Пак Чжун Мён - начальник отделения судмедэкспертизы Чо Юн Шиль
Ким Дэ Джин - лаборант Ким Сан До
Ан Нэ-Сан - детектив Пэ Тэ Сик
Пак Хе Вон - И Ран
Хан Со Джин - доктор Ю Со Юн

Перевод: Русские субтитры
Над проектом работали: Silly
Naive
Dario

Описание: Третий сезон дорамы, рассказывающей о Хан Чжин-У (Рю Док-Хван), главном судебно-медицинском эксперте Кореи. Он состоит в команде экспертов для проведения медицинских исследований после таинственных смертельных случаев. В дораме показана работа этой команды.
Неотключаемые субтитры:Хардсаб
Доп. информация: Субтитры представлены фсг BigBoss
Качество видео: HDTVRip
Формат: AVI
Видео: AVI, XviD, 704х400, 1 345 Kbps, 25.000 fps
Аудио: MP3, 128 Kbps, 44.1 KHz, 2 ch

Скриншоты

MediaInfo
Format : AVI
Format/Info : Audio Video Interleave
File size : 588 MiB
Duration : 56mn 16s
Overall bit rate : 1 461 Kbps
Writing application : VirtualDubMod 1.5.10.2 (build 2540/release)
Writing library : VirtualDubMod build 2540/release
Video
ID : 0
Format : xvid
Codec ID : xvid
Duration : 56mn 16s
Bit rate : 1 323 Kbps
Width : 704 pixels
Height : 400 pixels
Display aspect ratio : 16:9
Frame rate : 25.000 fps
Bits/(Pixel*Frame) : 0.188
Stream size : 533 MiB (91%)
Audio
ID : 1
Format : MPEG Audio
Format version : Version 1
Format profile : Layer 3
Mode : Joint stereo
Mode extension : MS Stereo
Codec ID : 55
Codec ID/Hint : MP3
Duration : 56mn 16s
Bit rate mode : Constant
Bit rate : 128 Kbps
Channel(s) : 2 channels
Sampling rate : 44.1 KHz
Compression mode : Lossy
Stream size : 51.5 MiB (9%)
Alignment : Split accross interleaves
Interleave, duration : 40 ms (1.00 video frame)
Interleave, preload duration : 500 ms
Writing library : LAME3.99.5


Download
Чтобы скачать .torrent файл необходима регистрация
Сайт не распространяет и не хранит электронные версии произведений, а лишь предоставляет доступ к создаваемому пользователями каталогу ссылок на торрент-файлы, которые содержат только списки хеш-сумм
[Профиль]  [ЛС] 
 

Acquacrot

Стаж: 3 года 4 месяца

Сообщений: 3


Acquacrot · 02-Сен-17 21:42 (спустя 7 месяцев)

[Цитировать] 

Встаньте на раздачу, пожалуйста. Спасибо за выложенное видео.
[Профиль]  [ЛС] 
 
Ответить
Loading...
Error