Адрес РуТрекера для пользователей РФ - 11.MainTracker.org

Расскажи друзьям:  

Старая добрая Фрида / Good Ol' Freda (Райан Уайт / Ryan White) [2013, Док. фильм, SATRip]

Страницы:  1

Ответить
Автор
Сообщение

kot48

Стаж: 13 лет 5 месяцев

Сообщений: 648


kot48 · 07-Дек-13 21:59 (5 лет 7 месяцев назад)

Старая добрая Фрида / Good Ol' Freda
Год выпуска: 2013
Страна: США / Великобритания
Жанр: Док. фильм
Продолжительность: 01:26:44
Перевод: Субтитры
Русские субтитры: есть
Режиссер: Райан Уайт / Ryan White
Описание: Полнометражный документальный фильм о Фриде Келли, ставшей секретарем "Битлз" еще в самом начале творческой карьеры великих музыкантов. В фильме использованы материалы из личного архива Фриды Келли.

SATRip от : Твид
Доп. информация: Любезно предоставлено клубом Fenix
Сэмпл: http://multi-up.com/930346
качество: SATRip
формат: AVI
Видео: XviD, 670 kb/s, 640x480, 25 fps, 0.087 bits/pixel
Аудио: 0x0055(MP3) ID'd as MPEG-1 Layer 3, 128 kb/s (2/ch, stereo) CBR, 48000 Hz - Английский
MediaInfo
Общее
Полное имя : D:\FILMS\Staraja dobraja Frida.SAT-rip.by.Твид.fenixclub.avi
Формат : AVI
Формат/Информация : Audio Video Interleave
Размер файла : 499 Мбайт
Продолжительность : 1 ч. 26 м.
Общий поток : 805 Кбит/сек
Видео
Идентификатор : 0
Формат : MPEG-4 Visual
Профиль формата : Advanced [email protected]
Параметр BVOP формата : 2
Параметр QPel формата : Нет
Параметр GMC формата : Без точки перехода
Параметр матрицы формата : Default (H.263)
Идентификатор кодека : XVID
Идентификатор кодека/Подсказка : XviD
Продолжительность : 1 ч. 26 м.
Битрейт : 667 Кбит/сек
Ширина : 640 пикселей
Высота : 480 пикселей
Соотношение сторон : 4:3
Частота кадров : 25,000 кадров/сек
Цветовое пространство : YUV
Субдискретизация насыщенности : 4:2:0
Битовая глубина : 8 бит
Тип развёртки : Прогрессивная
Метод сжатия : С потерями
Бит/(Пиксели*Кадры) : 0.087
Размер потока : 414 Мбайт (83%)
Библиотека кодирования : XviD 1.1.2 (UTC 2006-11-01)
Аудио
Идентификатор : 1
Формат : MPEG Audio
Версия формата : Version 1
Профиль формата : Layer 3
Режим : Joint stereo
Расширение режима : MS Stereo
Идентификатор кодека : 55
Идентификатор кодека/Подсказка : MP3
Продолжительность : 1 ч. 26 м.
Вид битрейта : Постоянный
Битрейт : 128 Кбит/сек
Каналы : 2 канала
Частота : 48,0 КГц
Метод сжатия : С потерями
Размер потока : 79,4 Мбайт (16%)
Выравнивание : Разделение по промежуткам
Продолжительность промежутка : 40 мс. (1,00 видеокадр)
Время предзагрузки промежутка : 500 мс.
Скриншоты
Download
Чтобы скачать .torrent файл необходима регистрация
Сайт не распространяет и не хранит электронные версии произведений, а лишь предоставляет доступ к создаваемому пользователями каталогу ссылок на торрент-файлы, которые содержат только списки хеш-сумм
[Профиль]  [ЛС] 
 

antoniobadman

Стаж: 11 лет 7 месяцев

Сообщений: 65

antoniobadman · 08-Июн-14 22:27 (спустя 6 месяцев)

Спасибо! Потрясающий фильм!
Фрида очень искренне рассказывает!
[Профиль]  [ЛС] 

seslavinsky

Top Bonus 03* 1TB

Стаж: 11 лет 2 месяца

Сообщений: 80

seslavinsky · 18-Июн-14 20:00 (спустя 9 дней)

Великолепный,добрый,и ,что главное, лишённый какой-либо грязи или желтизны, фильм. Спасибо!
[Профиль]  [ЛС] 

aass902

Стаж: 9 лет 5 месяцев

Сообщений: 172


aass902 · 25-Ноя-14 00:19 (спустя 5 месяцев 6 дней)

Спасибо. Хотел сегодня посмотреть на канале 24Док и поставил на запись, но сетку ТВ изменили и показали другой фильм. Хорошо, что здесь есть.
[Профиль]  [ЛС] 

mikelavr

Стаж: 11 лет 5 месяцев

Сообщений: 266


mikelavr · 15-Дек-14 13:51 (спустя 20 дней)

Отличный фильм, спасибо!
Фрида настолько искрення, что аж на слезу пробило.
Жаль только, что захардкоденные субтитры лезут не по делу. Ну, и ляпы там тоже имеются нехилые, начиная с того, что Битлз стрижет один и тот же ПОВАР...
Хотелось бы этот же фильм, но без (или с отключаемыми) сабов. Никто не видел где?
[Профиль]  [ЛС] 

Suharevski

Стаж: 4 года 7 месяцев

Сообщений: 1


Suharevski · 30-Дек-14 15:24 (спустя 15 дней)

скрытый текст
Пуно хвала за овај одличан филм
Поздрав и свима срећна Нова Година и Божић
Гугл-перевод:
Спасибо вам большое за отличную фильма
Привет всем и с Новым годом и Рождеством Христовым

Ваше сообщение было исправлено.
Пишите на русском языке!
Как писать на русском, без русской клавиатуры
Правила форума (пункт 2.11)

Цитата:
2.11. Использовать в общении на форуме язык, отличный от русского, и шрифт, отличный от кириллического. В форум встроены Виртуальная русская клавиатура и транслит, кроме того, в Интернете существует целый ряд подобных сервисов, если наш Вас не устраивает по каким-либо причинам. Модераторы и Администраторы имеют право редактировать или удалять сообщения, написанные на языке, отличном от русского, и шрифтом, отличным от кириллического, без предупреждения.

отредактировал IlyaSin
[Профиль]  [ЛС] 

kalininnn

Стаж: 10 лет 5 месяцев

Сообщений: 15

kalininnn · 16-Сен-17 21:31 (спустя 2 года 8 месяцев)

С русским переводом есть где-нибудь?
[Профиль]  [ЛС] 
 
Ответить
Loading...
Error