Адрес РуТрекера для пользователей РФ - 11.MainTracker.org

Расскажи друзьям:  

Адрес РуТрекера для пользователей РФ - 11.MainTracker.org

Расскажи друзьям:  

Нежный яд / Suave veneno / Серии: 001-140 (140) (Рикарду Ваддингтон) [1999, Бразилия, Теленовелла, SATRip] [Показ 2015 года]

Страницы:  1
Ответить
Автор
Сообщение

den-8870

Стаж: 11 лет

Сообщений: 264

den-8870 · 13-Апр-15 19:13 (4 года 6 месяцев назад, ред. 18-Фев-19 08:56)

Нежный яд / Suave veneno
Год выпуска: 1999
Страна: Бразилия
Производство: GLOBO TV
Жанр: Теленовелла
Серии (количество): 140
Продолжительность: 50 мин
Перевод: профессиональный многоголосый закадровый
Субтитры: Нет
Режиссёр: Рикарду Ваддингтон
В ролях: Жозе Вилкер, Глория Пирес, Ирен Раваче, Летисия Спиллер, Патрисия Франса, Нуно Леаль Майя, Родриго Санторо, Луана Пиовани, Диогу Вилела, Нелсон Шавьер, Бетти Фариа, Тука Андрада, Анжелу Антонио, Эдуардо Арбекс, Сильвия Бандейра, Ника Бонфим, Антонио Каллони, Марселия Карташу, Гильерме Корреа, Дил Коста, Том Курти, Иван Кандиду, Сесилия Дасси, Тадеу Ди Пьетро, Жоржи Дориа, Элизанжела, Даниела Фариа, Родриго Фаро
Описание: Несмотря на нажитое огромное состояние, Валдомиро Серкейра в душе остался прежним грубоватым рабочим, прямым и искренним. Валдомиро — отец трех дочерей, а также владелец крупной компании «Мармореал», в честь которой в высшем обществе его называют «мраморным королем». Однако, несмотря на финансово-экономические успехи, в родной семье Валдомиро не все идет гладко. Старшая дочь Мария Режина спит и видит, как избавиться от отца и встать во главе «Мармореала», а жена Валдомиро уже давно мечтает отделаться от неотесанного мужа, с которым ей стыдно появиться в свете. Словно в сказке, желания обеих исполняются: Валдомиро влюбляется в Инес — девушку, потерявшую память.
Доп. информация: Качественный рип от lex2k ,записанный с повторного показа.
14 серию 8 канал не показал ,я записал с Ю ,а на 17 серию наложил дорожку лучшего качества
Скачать
>>>14 серия (замена с телеканала Ю)
>>>17 серия(замена звука)
Ссылка на предыдущие и альтернативные раздачи: http://1.maintracker.org/forum/tracker.php?nm=Suave%20veneno
Качество: SATRip
Формат: AVI
Видео кодек: XviD
Аудио кодек: MP3
Видео: XviD 704х512 25fps 1800 kbps
Аудио: MPEG Audio Layer 3, 48000Hz, stereo, 128Kbps
MI
General
Complete name : F:\SV\Suave.Veneno.001.avi
Format : AVI
Format/Info : Audio Video Interleave
File size : 660 MiB
Duration : 50mn 11s
Overall bit rate : 1 838 Kbps
Writing library : VirtualDub build 30091/release
Video
ID : 0
Format : MPEG-4 Visual
Format profile : Advanced Simple@L5
Format settings, BVOP : 1
Format settings, QPel : No
Format settings, GMC : No warppoints
Format settings, Matrix : Custom
Codec ID : XVID
Codec ID/Hint : XviD
Duration : 50mn 11s
Bit rate : 1 700 Kbps
Width : 704 pixels
Height : 512 pixels
Display aspect ratio : 1.406
Frame rate : 25.000 fps
Color space : YUV
Chroma subsampling : 4:2:0
Bit depth : 8 bits
Scan type : Progressive
Compression mode : Lossy
Bits/(Pixel*Frame) : 0.184
Stream size : 610 MiB (93%)
Writing library : XviD 1.2.1 (UTC 2008-12-04)
Audio
ID : 1
Format : MPEG Audio
Format version : Version 1
Format profile : Layer 3
Mode : Joint stereo
Mode extension : MS Stereo
Codec ID : 55
Codec ID/Hint : MP3
Duration : 50mn 11s
Bit rate mode : Constant
Bit rate : 128 Kbps
Channel(s) : 2 channels
Sampling rate : 48.0 KHz
Compression mode : Lossy
Stream size : 45.9 MiB (7%)
Alignment : Split accross interleaves
Interleave, duration : 40 ms (1.00 video frame)
Interleave, preload duratio : 500 ms
Скриншоты

Download
Сайт не распространяет и не хранит электронные версии произведений, а лишь предоставляет доступ к создаваемому пользователями каталогу ссылок на торрент-файлы, которые содержат только списки хеш-сумм
Как скачивать? (для скачивания .torrent файлов необходима регистрация)
[Профиль]  [ЛС] 
 

Avengo

Top Loader 01* 100GB

Стаж: 12 лет 9 месяцев

Сообщений: 532

Avengo · 20-Апр-15 12:00 (спустя 6 дней, ред. 23-Апр-15 10:57)

Нежный Яд
[Профиль]  [ЛС] 

maramax001

Стаж: 7 лет 9 месяцев

Сообщений: 94


maramax001 · 26-Апр-15 09:27 (спустя 5 дней)

а остальные серии будут выложены?
[Профиль]  [ЛС] 

den-8870

Стаж: 11 лет

Сообщений: 264

den-8870 · 04-Май-15 15:36 (спустя 8 дней)

maramax001 писал(а):
67623264а остальные серии будут выложены?
Добавил новые серии
[Профиль]  [ЛС] 

Nemesis96

Стаж: 11 лет 1 месяц

Сообщений: 924

Nemesis96 · 27-Май-15 15:38 (спустя 23 дня)

Скажите, а озвучка старая (ОРТ) или переозвучили?
[Профиль]  [ЛС] 

Avengo

Top Loader 01* 100GB

Стаж: 12 лет 9 месяцев

Сообщений: 532

Avengo · 30-Май-15 00:24 (спустя 2 дня 8 часов)

krossik123321 писал(а):
67907099Стоим на нуле.Помогите,пожалуйста!!!!!!!!!!!!!!!!!!!!!!!!!!!!!!!!!!!!
тут можно скачать Нежный Яд
отсюда скачал, туда залил
[Профиль]  [ЛС] 

alexey270385

Стаж: 11 лет

Сообщений: 90

alexey270385 · 18-Окт-15 14:19 (спустя 4 месяца 19 дней)

Интересный сериал. Только для меня осталась загадкой всё таки как же оказались на том месте настоящие бриллианты???? Да и оконцовка фильма и книги не совпадают. Автору большое спасибо за хорошее качество!!!
[Профиль]  [ЛС] 

IvanS66

Стаж: 11 лет 1 месяц

Сообщений: 3028


IvanS66 · 31-Янв-16 21:45 (спустя 3 месяца 13 дней)

alexey270385
если ты про гибель на скале.То этот момент всегда меня интересовал почему в книге Режина и Аделму выживают, а по сериалу умирают
[Профиль]  [ЛС] 

rekrut_666

Стаж: 8 лет 11 месяцев

Сообщений: 1691

rekrut_666 · 13-Мар-17 22:03 (спустя 1 год 1 месяц)

Моё самое любимое мыло из всего латиноамериканского мыла
Надо освобождать место на диске, надеюсь, на следующей недельке начать
Спасибо за труды
[Профиль]  [ЛС] 

den-8870

Стаж: 11 лет

Сообщений: 264

den-8870 · 26-Ноя-17 23:01 (спустя 8 месяцев)

14 серию 8 канал не показал ,я записал с Ю ,а на 17 серию наложил дорожку лучшего качества
Скачать
>>>14 серия Исходник Ю
>>>14 серия Ави Ю
>>>17 серия(замена звука)
[Профиль]  [ЛС] 

Helen Helen TH

Стаж: 4 года 3 месяца

Сообщений: 1


Helen Helen TH · 01-Окт-19 13:37 (спустя 1 год 10 месяцев)

Раздайте пожалуйста
[Профиль]  [ЛС] 
 
Ответить
Loading...
Error