Адрес РуТрекера для пользователей РФ - MainTracker.org

Расскажи друзьям:  

Молодёжка. Взрослая жизнь / Сезон: 5 / Серии: 1-44 из 44 (Сергей Арланов) [2017, драма, спорт, WEBRip-AVC]

Страницы:  1

Ответить
Автор
Сообщение

Pigy

RG Русские сериалы

Стаж: 9 лет 9 месяцев

Сообщений: 2479

Pigy · 11-Фев-18 01:55 (6 месяцев назад)

Молодёжка. Взрослая жизнь
Год выпуска: 2017
Производство: Арт Пикчерс Вижн
Жанр: драма, спорт
Продолжительность: ~00:47:00 серия
Субтитры: нет
Режиссёр: Сергей Арланов
В ролях: Денис Никифоров, Андрей Мерзликин, Михаил Жигалов, Фёдор Бондарчук, Владимир Яглыч, Сергей Габриэлян, Владимир Зайцев, Сергей Комаров, Анатолий Кот, Анатолий Лобоцкий, Ксения Лаврова-Глинка, Серафима Низовская, Валентина Ананьина, Макар Запорожский, Александр Соколовский, Влад Канопка, Илья Коробко, Игорь Огурцов, Иван Жвакин, Анна Михайловская, Мария Иващенко, Иван Мулин, Иван Дубровский, Матвей Зубалевич, Валерия Гладилина, Юлия Маргулис, Мария Пирогова, Вадим Андреев, Пётр Коврижных

Описание: Ребята вступают на взрослый путь в составе клуба «Бурые Медведи», где их ждут не только заманчивые перспективы, но и непростой приём старожил. Хватит ли опыта бывшим звёздам молодёжной команды, чтобы сыграться с профессионалами высшей лиги?

Реклама: Нет.

Все раздачи сериала
Sample
Качество: WEBRip-AVC - Серый1779
Формат: MKV
Видео кодек: H.264
Аудио кодек: AC3
Видео: MPEG4 AVC Video, H264, 16:9, 1024x576, 25 fps, ~1600 kbps, 0.109 bit/pixel
Аудио: AC3 Dolby Digital, 44.1 kHz, 2/0 (L,R) ch, 192 kbps
MI
General
Unique ID : 182929190103212668908420622265661095884 (0x899EE167F04CB40BA57C250FA5897FCC)
Complete name : G:\Новая папка\Moldegka.5.2017.(2017).WEB-DLRip.(AVC).Files-x\05.Moldegka.5.(2017).WEB-DLRip.(AVC).by.Серый1779.Files-x.mkv
Format : Matroska
Format version : Version 2
File size : 608 MiB
Duration : 47mn 30s
Overall bit rate : 1 790 Kbps
Encoded date : UTC 2017-09-06 04:33:01
Writing application : mkvmerge v6.1.0 ('Old Devil') built on Mar 4 2013 09:10:42
Writing library : libebml v1.3.0 + libmatroska v1.4.0
Video
ID : 1
Format : AVC
Format/Info : Advanced Video Codec
Format profile : High@L4.1
Format settings, CABAC : Yes
Format settings, ReFrames : 9 frames
Codec ID : V_MPEG4/ISO/AVC
Duration : 47mn 30s
Bit rate : 1 600 Kbps
Width : 1 024 pixels
Height : 576 pixels
Display aspect ratio : 16:9
Frame rate mode : Constant
Frame rate : 25.000 fps
Color space : YUV
Chroma subsampling : 4:2:0
Bit depth : 8 bits
Scan type : Progressive
Bits/(Pixel*Frame) : 0.109
Stream size : 531 MiB (87%)
Writing library : x264 core 130 r2273 b3065e6
Encoding settings : cabac=1 / ref=9 / deblock=1:-2:-1 / analyse=0x3:0x133 / me=umh / subme=9 / psy=1 / psy_rd=1.00:0.15 / mixed_ref=1 / me_range=32 / chroma_me=1 / trellis=2 / 8x8dct=1 / cqm=0 / deadzone=21,11 / fast_pskip=0 / chroma_qp_offset=-3 / threads=3 / lookahead_threads=1 / sliced_threads=0 / nr=0 / decimate=1 / interlaced=0 / bluray_compat=0 / constrained_intra=0 / bframes=9 / b_pyramid=2 / b_adapt=2 / b_bias=0 / direct=1 / weightb=1 / open_gop=0 / weightp=2 / keyint=250 / keyint_min=25 / scenecut=40 / intra_refresh=0 / rc=2pass / mbtree=0 / bitrate=1600 / ratetol=1.0 / qcomp=0.60 / qpmin=0 / qpmax=69 / qpstep=4 / cplxblur=20.0 / qblur=0.5 / ip_ratio=1.40 / pb_ratio=1.30 / aq=2:1.00
Default : Yes
Forced : No
Color primaries : BT.709
Transfer characteristics : BT.709
Matrix coefficients : BT.709
Audio
ID : 2
Format : AC-3
Format/Info : Audio Coding 3
Mode extension : CM (complete main)
Format settings, Endianness : Big
Codec ID : A_AC3
Duration : 47mn 30s
Bit rate mode : Constant
Bit rate : 192 Kbps
Channel count : 2 channels
Channel positions : Front: L R
Sampling rate : 44.1 KHz
Bit depth : 16 bits
Compression mode : Lossy
Stream size : 65.2 MiB (11%)
Default : Yes
Forced : No
Скриншоты
Download
Чтобы скачать .torrent файл необходима регистрация
Сайт не распространяет и не хранит электронные версии произведений, а лишь предоставляет доступ к создаваемому пользователями каталогу ссылок на торрент-файлы, которые содержат только списки хеш-сумм
[Профиль]  [ЛС] 
 

sea8007

Стаж: 4 года 9 месяцев

Сообщений: 11


sea8007 · 11-Фев-18 10:40 (спустя 8 часов)

[Цитировать] 

спасибище!!Выходной будет не зря проведен)))!!!
[Профиль]  [ЛС] 

id_Overlord

Стаж: 9 месяцев

Сообщений: 1


id_Overlord · 18-Фев-18 00:30 (спустя 6 дней)

[Цитировать] 

подскажите, продолжение сезона 2018 года с какой серии начинается? что-то я запутался)
[Профиль]  [ЛС] 

Andreyivanovo

Стаж: 9 лет 3 месяца

Сообщений: 8


Andreyivanovo · 18-Фев-18 09:00 (спустя 8 часов)

[Цитировать] 

предвыборная агитация,особенно в последних сериях напрягала
[Профиль]  [ЛС] 

P_Henry

Стаж: 7 лет 10 месяцев

Сообщений: 10

P_Henry · 19-Фев-18 23:54 (спустя 1 день 14 часов)

[Цитировать] 

id_Overlord писал(а):
74820833подскажите, продолжение сезона 2018 года с какой серии начинается? что-то я запутался)
c 27
[Профиль]  [ЛС] 
 
Ответить
Loading...
Error