Адрес РуТрекера для пользователей РФ - MainTracker.org

Расскажи друзьям:  

Мертвое сердце / Серии: 1-4 из 4 (Артур Румынский) [2014, Детектив, криминальный фильм, HDTV 1080i]

Страницы:  1

Ответить
Автор
Сообщение

Серый1779

Top Seed 08* 5120r

Стаж: 8 лет

Сообщений: 7869

Серый1779 · 20-Апр-15 11:30 (3 года 1 месяц назад, ред. 20-Апр-15 12:36)

[Цитировать] 

Мертвое сердце
Год выпуска: 2014
Производство: Россия, ООО «АЛЬЯНС ПРОФИ»
Жанр: Детектив, криминальный фильм
Продолжительность: ~0:45:00 серия
Субтитры: нет
Режиссёр: Артур Румынский
В ролях: Михаил Евланов, Евгений Воловенко, Мария Гузеева, Мария Киреева, Руслан Ягудин, Алексей Рыжков, Константин Адаев, Ирина Бразговка, Светлана Рубан, Павел Новиков, Кирилл Захаров

Описание: Ученый с большой буквы и талантливый изобретатель – химик Артём Васильев — разработал уникальное лекарство против рака. Но его мечте спасти тысячи жизней кто-то жестоко помешал. Неизвестные подожгли лабораторию Артёма, во время инцидента погибла его жена, исчез сын, канули в Лету все архивы и данные разработок. Новый удар Васильеву нанесли следственные органы: теперь он – главный подозреваемый в поджоге и убийстве жены. От ареста его спасает только то, что на месте преступления задерживают исполнителя – бывшего военного химика Фёдора Пашнина, которого с ожогами и под конвоем доставляют в больницу. Одержимый местью Артём проникает в палату к Фёдору, чтобы расправиться с тем, кто отнял у него самое дорогое в жизни. И там совершенно неожиданно сталкивается с киллером, охотящимся на Пашнина. Своим вмешательством Артём, сам того не желая, спасает своего врага, который сообщает: его сын жив, и только он знает, как найти мальчика.....
Все раздачи сериала: Мертвое сердце

Качество: HDTV 1080i
Формат: TS
Видео кодек: H.264
Аудио кодек: MP2
Видео: x264, 1920 х 1080 (16:9), 25,000 кадр/сек, ~ 7888 Кбит/сек, 0.152 bit/pixel
Аудио: MP2, 48000 Hz, ~192 Kbps, 2 канала
Сторонней рекламы нет!
MediaInfo
General
ID : 1 (0x1)
Complete name : Mertvoe.serdce.(2.seriya).2014.HDTV.1080i.ts
Format : MPEG-TS
File size : 2.67 GiB
Duration : 45mn 0s
Overall bit rate mode : Variable
Overall bit rate : 8 502 Kbps
Video
ID : 901 (0x385)
Menu ID : 1047 (0x417)
Format : AVC
Format/Info : Advanced Video Codec
Format profile : Main@L4.0
Format settings, CABAC : Yes
Format settings, ReFrames : 2 frames
Codec ID : 27
Duration : 45mn 0s
Bit rate : 7 888 Kbps
Width : 1 920 pixels
Height : 1 080 pixels
Display aspect ratio : 16:9
Frame rate : 25.000 fps
Color space : YUV
Chroma subsampling : 4:2:0
Bit depth : 8 bits
Scan type : MBAFF
Bits/(Pixel*Frame) : 0.152
Stream size : 2.48 GiB (93%)
Color primaries : BT.709
Transfer characteristics : BT.709
Matrix coefficients : BT.709
Audio
ID : 902 (0x386)
Menu ID : 1047 (0x417)
Format : MPEG Audio
Format version : Version 1
Format profile : Layer 2
Codec ID : 3
Duration : 45mn 0s
Bit rate mode : Constant
Bit rate : 192 Kbps
Channel count : 2 channels
Sampling rate : 48.0 KHz
Compression mode : Lossy
Stream size : 61.8 MiB (2%)
Language : Russian
Раздача группы:
Отдельное спасибо daboen за предоставление материала.
Внимание ! Раздача ведётся путём добавления новых серий
Внимание! Раздача ведётся путём добавления новых серий; при каждом добавлении создётся новый торрент. Чтобы начать докачку новой серии, пользователям необходимо сделать следующее:
(1) остановить скачивание,
(2) удалить старый торрент у себя из клиента (старые серии удалять не надо),
(3) скачать новый торрент и запустить его у себя в клиенте вместо старого, при этом указать клиенту путь в старую папку куда и должно происходить скачивание новых серий.
Ваш клиент при этом должен произвести хеширование (проверку) старой папки (если не производит сам - помогите ему сделать это), и будет докачивать только те серии которых у вас ещё нет. Старые серии при этом не удаляются, а продолжают раздаваться!
Eсли вы уже удалили старые серии, то предотвратить повторную закачку старых серий можно, отжав галочку в соответсвующих местах при запуске нового торрента. По возможности, желательно не удалять старые серии как можно дольше чтобы релизёр не столько продолжал раздавать старые серии, а смог сконцентрироваться на новых.
ВНИМАНИЕ! ТОРРЕНТ ПЕРЕЗАЛИТ! ДОБАВЛЕНА 4-ая СЕРИИ!
Скриншоты
[Профиль]  [ЛС] 
 

bot · 06-Апр-18 00:27 (спустя 2 года 11 месяцев)

Тема была перенесена из форума Русские сериалы в форум Архив (Русские сериалы)
Сударыня
 
 
Ответить
Loading...
Error