Адрес РуТрекера для пользователей РФ - 11.MainTracker.org

Расскажи друзьям:  

Адрес РуТрекера для пользователей РФ - 11.MainTracker.org

Расскажи друзьям:  

(Blues/Rock) [WEB] Koenig And The Ghost Notes - The Ghost Within - 2018, FLAC (tracks), lossless

Страницы:  1
Ответить
Автор
Сообщение

Colpy

Стаж: 6 лет 5 месяцев

Сообщений: 3103

Colpy · 06-Апр-18 05:50 (1 год 6 месяцев назад)

Koenig And The Ghost Notes / The Ghost Within
Жанр: Blues/Rock
Носитель: WEB
Год издания: 2018
Издатель (лейбл): K & R Records
Страна исполнителя (группы): Raleigh, NC
Аудиокодек: FLAC (*.flac)
Тип рипа: tracks
Битрейт аудио: lossless
Продолжительность: 40:44
Наличие сканов в содержимом раздачи: front

Tracklist:
01 Heat On My Neck (Gritty) 03:41
02 Broken Chains 03:34
03 I'm In A Funk 03:51
04 Heat On My Neck 03:24
05 Spooky Little Ghost 03:11
06 Sharp Teeth 03:36
07 Letting Go 03:27
08 Where's My Hero Gone? 04:18
09 Will You Be There? 04:33
10 Hindsight 03:55
11 North Carolina 03:12
Dynamic Range Meter
foobar2000 1.3.16 / Dynamic Range Meter 1.1.1
log date: 2018-04-05 15:29:34
--------------------------------------------------------------------------------
Analyzed: Koenig And The Ghost Notes / The Ghost Within
--------------------------------------------------------------------------------
DR Peak RMS Duration Track
--------------------------------------------------------------------------------
DR7 0.00 dB -8.04 dB 3:41 01-Heat On My Neck (Gritty)
DR6 -0.83 dB -8.63 dB 3:34 02-Broken Chains
DR7 -0.10 dB -8.46 dB 3:51 03-I'm In A Funk
DR9 0.00 dB -10.20 dB 3:24 04-Heat On My Neck
DR8 0.00 dB -9.15 dB 3:11 05-Spooky Little Ghost
DR10 -0.09 dB -12.03 dB 3:36 06-Sharp Teeth
DR9 0.00 dB -9.65 dB 3:27 07-Letting Go
DR8 0.00 dB -9.28 dB 4:18 08-Where's My Hero Gone?
DR7 0.00 dB -8.75 dB 4:33 09-Will You Be There?
DR9 -0.15 dB -10.36 dB 3:55 10-Hindsight
DR9 -0.14 dB -11.09 dB 3:12 11-North Carolina
--------------------------------------------------------------------------------
Number of tracks: 11
Official DR value: DR8
Samplerate: 44100 Hz
Channels: 2
Bits per sample: 16
Bitrate: 860 kbps
Codec: FLAC
Log Quality Checking
PERFORMER: auCDtect Task Manager, ver. 1.6.0 RC1 build 1.6.0.1
Copyright (c) 2008-2010 y-soft. All rights reserved
http://y-soft.org
ANALYZER: auCDtect: CD records authenticity detector, version 0.8.2
Copyright (c) 2004 Oleg Berngardt. All rights reserved.
Copyright (c) 2004 Alexander Djourik. All rights reserved.
FILE: 01 - Heat On My Neck (Gritty).flac
Size: 25484463 Hash: BC31B33893781750F17E737243D16BB9 Accuracy: -m0
Conclusion: CDDA 99%
Signature: D30A0E334F6FBF889DFF644A8A9AFCD5D7C3EAFE
FILE: 02 - Broken Chains.flac
Size: 26989145 Hash: 7799FE8FC1C6FE32267D214951925F4B Accuracy: -m0
Conclusion: CDDA 100%
Signature: A302C02B9030D0D46FB42974620A33BEBD665580
FILE: 03 - I'm In A Funk.flac
Size: 27580957 Hash: A1936B3D4FFF3CAA37C0F8EB41071B1E Accuracy: -m0
Conclusion: CDDA 100%
Signature: CD2C668DAFE3A1BE8D766EFB1043F8DA9AA1456F
FILE: 04 - Heat On My Neck.flac
Size: 24257309 Hash: 1CE05630550D4D691F41048E89899137 Accuracy: -m0
Conclusion: CDDA 100%
Signature: 217380734802B62C9C89259AA15FA5F31002297A
FILE: 05 - Spooky Little Ghost.flac
Size: 22415808 Hash: 53148BD153591A33249FCB72794856DE Accuracy: -m0
Conclusion: CDDA 100%
Signature: 44F2CCD1C9D4C01668F62390ACB77E5D8F3936AE
FILE: 06 - Sharp Teeth.flac
Size: 22371919 Hash: 8256EAD0047723964A8E13E96ADB68C6 Accuracy: -m0
Conclusion: CDDA 100%
Signature: C0DEF8D9ECBB13EADE9C7200DC2687C54FD246AF
FILE: 07 - Letting Go.flac
Size: 26316239 Hash: 3C82B4C79B736EC6F424C61A93D842B8 Accuracy: -m0
Conclusion: CDDA 100%
Signature: 374FF4B29F6EA5582B4E23157D56B7B3503C8B6C
FILE: 08 - Where's My Hero Gone.flac
Size: 31365474 Hash: B4108DBA2D9081FF7EAB3AC4BEF829B0 Accuracy: -m0
Conclusion: CDDA 100%
Signature: 575A7ECDFADDA850C0BD08BC5EAFEAB7878143B3
FILE: 09 - Will You Be There.flac
Size: 34134533 Hash: A9623CB7E7DDD3F5D5A9EC13FCAD43CE Accuracy: -m0
Conclusion: CDDA 100%
Signature: 104DB29FF4AD86567E688258B0EA01A35FB59AC6
FILE: 10 - Hindsight.flac
Size: 26479449 Hash: C2542B96920FD8AD76CA1F345B56DCA5 Accuracy: -m0
Conclusion: CDDA 100%
Signature: 14F4D2BC7ECBE1092DEA7CBADED5663FC99DC7EE
FILE: 11 - North Carolina.flac
Size: 20791417 Hash: C56B2F308E2D972F74CD8C40E6A308CD Accuracy: -m0
Conclusion: CDDA 99%
Signature: C6931BA450A76568F56690AD1158E74EE84A48F3
Frequency Spectrum Screenshot
Блин, вот как всегда! После шести прослушанных и выкинутых с компа новых релизов, появилось что-то стоящее, чтобы обратить внимание! (нет бы попался первым, так нет - седьмым! ) Релиз стоит того, чтобы обратить внимание! Даем скидку, на то, что парень недавно в этом болоте, всего с 2013 года! Да и серьезной поддержки в лице "богов" и "полубогов" у него нет, что конечно сказывается на медийности персоны! Но, я так думаю, если у парня действительно есть Божья искра, то она пробьет себе путь и без этих весьма нужных телодвижений и знакомств! (Хотя... :?) Короче, альбом стоит, чтобы его послушать!
Download
Сайт не распространяет и не хранит электронные версии произведений, а лишь предоставляет доступ к создаваемому пользователями каталогу ссылок на торрент-файлы, которые содержат только списки хеш-сумм
Как скачивать? (для скачивания .torrent файлов необходима регистрация)
[Профиль]  [ЛС] 

ichbinich

Победители конкурсов

Стаж: 8 лет 2 месяца

Сообщений: 1780

ichbinich · 10-Апр-18 18:12 (спустя 4 дня)

Точно стоит послушать! Но как жаль, что в таком качестве.
[Профиль]  [ЛС] 
 
Ответить
Loading...
Error