Адрес РуТрекера для пользователей РФ - MainTracker.org

Расскажи друзьям:  

Телохранитель / Сезон: 1 / Серии: 1-12 из 12 (Владислав Фурманов) [2007, Детектив, DVB]

Страницы:  1

Ответить
Автор
Сообщение

Серый1779

Top Seed 07* 2560r

Стаж: 8 лет 3 месяца

Сообщений: 7853

Серый1779 · 16-Апр-14 11:51 (4 года 4 месяца назад, ред. 28-Апр-14 21:27)

[Цитировать] 

Телохранитель
Год выпуска: 2007
Производство: " Новый русский сериал"
Жанр: Детектив
Продолжительность: ~0:45:00 серия
Субтитры: украинские вшитые
Режиссёр: Владислав Фурманов (II)
В ролях: Эдуард Трухменев, Яна Львова, Николай Иванов, Юрий Анпилогов, Валерий Жаков, Олег Зима, Олег Кныш, Юрий Цурило, Ольга Погодина и другие

Описание: К услугам Отдела Физической Защиты (ОФЗ) частного охранного агентства «Командор» вынуждены обращаться как бизнесмены, политики, так и звезды шоу бизнеса и даже ученые. Рано или поздно конфликтные ситуации выходят из-под контроля и требуется помощь профессионалов. Преступники используют богатейший арсенал новых видов оружия, техники, ядов. Внедряются в структуры и все время дышат в спину своим жертвам, карауля, поджидая нужный удобный момент, для выполнения заказа. «Командору» приходится принимать участие в дипломатических миссиях и решать поставленные задачи с помощью хороших связей с ФСБ, СВР и Правительством РФ. Своевременно добытая информация существенно влияет на оперативность реагирования и эффективность решений. Главное оружие — скорость и скрытность. Благодаря богатому опыту, смекалке и слаженности членов команды, «Командору» удается обеспечивать своим клиентам охрану по категории «А» (высшая степень). Криминальным группам приходится изобретать все более изощренные способы преследования собственных интересов. Зрителям же, остается лишь гадать, что на сей раз, выкинут злоумышленники, и что предпримет «Командор», чтобы предотвратить нежелательные последствия для своих клиентов.
Доп. информация:
Сериал состоит из трёх фильмов по 4 серии в каждом:
Фильм первый, «Ближний круг» (серии 1—4)
Фильм второй, «Недетский мир» (серии 5—8)
Фильм третий, «Красный дед» (серии 9—12)
Все раздачи сериала: Телохранитель

Качество: DVB
Формат: MPEG
Видео кодек: MPEG2
Аудио кодек: MPEG1
Видео: MPEG2 Video 768х576 @ 720x576 (4:3) 25.00fps ~4800 Kbps (0.463 bit/pixel)
Аудио: MPEG Audio 48000Hz 2 channels 256 Кбит/сек
Сторонней рекламы нет!
MediaInfo
Общее
Полное имя : E:\Телохранитель DVB\Телохранитель 01_серия_DVB_by_Серый1779.mpg
Формат : MPEG-PS
Размер файла : 1,69 Гбайт
Продолжительность : 47 м.
Режим общего битрейта : Переменный
Общий поток : 5120 Кбит/сек
Видео
Идентификатор : 224 (0xE0)
Формат : MPEG Video
Версия формата : Version 2
Профиль формата : Main@Main
Параметр BVOP формата : Да
Параметр матрицы формата : Выборочная
Параметр GOP формата : Variable
Продолжительность : 47 м.
Вид битрейта : Переменный
Битрейт : 4800 Кбит/сек
Ширина : 720 пикселей
Высота : 576 пикселей
Соотношение сторон : 4:3
Частота кадров : 25,000 кадров/сек
Стандарт вещания : PAL
Цветовое пространство : YUV
Субдискретизация насыщенности : 4:2:0
Битовая глубина : 8 бит
Тип развёртки : Чересстрочная
Порядок развёртки : Верхнее поле первое
Метод сжатия : С потерями
Бит/(Пиксели*Кадры) : 0.463
Размер потока : 1,57 Гбайт (93%)
Аудио
Идентификатор : 192 (0xC0)
Формат : MPEG Audio
Версия формата : Version 1
Профиль формата : Layer 2
Продолжительность : 47 м.
Вид битрейта : Постоянный
Битрейт : 256 Кбит/сек
Каналы : 2 канала
Частота : 48,0 КГц
Метод сжатия : С потерями
Размер потока : 86,4 Мбайт (5%)
Запись и монтаж:
Раздача группы:
Внимание ! Раздача ведётся путём добавления новых серий
Внимание! Раздача ведётся путём добавления новых серий; при каждом добавлении создётся новый торрент. Чтобы начать докачку новой серии, пользователям необходимо сделать следующее:
(1) остановить скачивание,
(2) удалить старый торрент у себя из клиента (старые серии удалять не надо),
(3) скачать новый торрент и запустить его у себя в клиенте вместо старого, при этом указать клиенту путь в старую папку куда и должно происходить скачивание новых серий.
Ваш клиент при этом должен произвести хеширование (проверку) старой папки (если не производит сам - помогите ему сделать это), и будет докачивать только те серии которых у вас ещё нет. Старые серии при этом не удаляются, а продолжают раздаваться!
Eсли вы уже удалили старые серии, то предотвратить повторную закачку старых серий можно, отжав галочку в соответсвующих местах при запуске нового торрента. По возможности, желательно не удалять старые серии как можно дольше чтобы релизёр не столько продолжал раздавать старые серии, а смог сконцентрироваться на новых.
ВНИМАНИЕ! ТОРРЕНТ ПЕРЕЗАЛИТ! ДОБАВЛЕНА 12-ая СЕРИИ!
Скриншоты
[Профиль]  [ЛС] 
 

cypher1999

Стаж: 12 лет

Сообщений: 370

cypher1999 · 29-Мар-15 15:18 (спустя 11 месяцев)

[Цитировать] 

На скорости 58 килобайт\сек качается. Это жесть. Хотел забрать раздачу на хранение - но, видимо, не судьба.
[Профиль]  [ЛС] 

bot · 13-Апр-18 09:58 (спустя 3 года)

Тема была перенесена из форума Русские сериалы в форум Архив (Русские сериалы)
Сударыня
 
 
Ответить
Loading...
Error