Опасная любовь / Серии: 1-4 из 4 (Кирилл Капица) [2014, криминал, драма, HDTV (1080i)]

Страницы:  1

Ответить
Автор
Сообщение

Gahan Dave

Top Seed 06* 1280r

Стаж: 10 лет 3 месяца

Сообщений: 3513

Gahan Dave · 30-Сен-15 14:50 (3 года назад, ред. 30-Сен-15 21:33)

[Цитировать] 

Опасная любовь

Год выпуска: 2014
Производство: "Star Media"
Жанр: криминал, драма
Продолжительность: 00:48:00
Субтитры: нет
Режиссёр: Кирилл Капица
В ролях:
Игорь Лифанов, Анна Сырбу, Сергей Воробьёв, Владимир Щербаков, Игорь Петрусенко, Владимир Осадчий, Елена Турбал, Екатерина Кистень, Станислав Москвин, Игорь Гнездилов, Кирилл Капица, Евгений Ефремов, Андрей Мостренко, Сергей Деревянко, Дмитрий Гаврилов, Владимир Горянский, Дмитрий Сова, Вячеслав Довженко, Сергей Бондарчук (II), Игорь Мельников, Владимир Заднепровский, Юрий Высоцкий, Алексей Дребезгов, Александра Олейник, Игорь Арнаутов, Ада Роговцева, Григорий Боковенко
Описание:
Офицер полиции Кирилл Поляков внедрен в банду наркоторговцев — его цель — обокрасть «товарищей», сдать их полиции, а самому скрыться с деньгами. Жена Полякова Вика ни о чем таком не подозревает, но сходит с ума от переживаний, поскольку за последние два месяца муж очень изменился. Главарь банды Иван Золотарев, вычислив Полякова, решает «прижать» крысу после совершения готовящегося крупного ограбления — и это ему удается. Но местонахождение похищенных денег остается неизвестным, и тогда Золотарев втирается Вике в доверие, ошибочно полагая, что муж посвятил ее в свои планы.
Все раздачи сериала
Возраст: 16+
релиз подготовлен RG для
Качество: HDTV (1080i)
Формат: TS
Видео кодек: AVC
Аудио кодек: MP2

Видео: AVC, 1920 х 1080 (16:9), 25,000 кадр/сек, 7 873 Кбит/сек, 0.152 bit/pixel
Аудио: MP2, 48000 Hz, 192 Kbps, 2 канала

MediaInfo
General
ID : 1 (0x1)
Complete name : D:\Раздачи\Опасная любовь (1-4 серии из 4) HDTV (1080i)\Opasnaya.lyubov.02.2014.HDTV.1080i.ts
Format : MPEG-TS
File size : 2.62 GiB
Duration : 44mn 10s
Overall bit rate mode : Variable
Overall bit rate : 8 486 Kbps
Video
ID : 901 (0x385)
Menu ID : 90 (0x5A)
Format : AVC
Format/Info : Advanced Video Codec
Format profile : [email protected]
Format settings, CABAC : Yes
Format settings, ReFrames : 2 frames
Format settings, GOP : M=3, N=30
Codec ID : 27
Duration : 44mn 10s
Bit rate : 7 873 Kbps
Width : 1 920 pixels
Height : 1 080 pixels
Display aspect ratio : 16:9
Frame rate : 25.000 fps
Color space : YUV
Chroma subsampling : 4:2:0
Bit depth : 8 bits
Scan type : MBAFF
Scan order : Top Field First
Bits/(Pixel*Frame) : 0.152
Stream size : 2.43 GiB (93%)
Color range : Limited
Color primaries : BT.709
Transfer characteristics : BT.709
Matrix coefficients : BT.709
Audio
ID : 902 (0x386)
Menu ID : 90 (0x5A)
Format : MPEG Audio
Format version : Version 1
Format profile : Layer 2
Codec ID : 3
Duration : 44mn 10s
Bit rate mode : Constant
Bit rate : 192 Kbps
Channel(s) : 2 channels
Sampling rate : 48.0 KHz
Compression mode : Lossy
Stream size : 60.7 MiB (2%)
Language : Russian

Скриншоты сериала

Раздаю до первых 5-ти скачавших, на раздачи не возвращаюсь...
[Профиль]  [ЛС] 
 

bot · 13-Апр-18 09:58 (спустя 2 года 6 месяцев)

Тема была перенесена из форума Русские сериалы в форум Архив (Русские сериалы)
Сударыня
 
 
Ответить
Loading...
Error