Адрес РуТрекера для пользователей РФ - MainTracker.org

Расскажи друзьям:  

Бык и Шпиндель / Серии: 1-4 из 4 (Анатолий Артамонов) [2014, Детектив, комедия, DVB]

Страницы:  1

Ответить
Автор
Сообщение

Серый1779

Top Seed 07* 2560r

Стаж: 8 лет 3 месяца

Сообщений: 7853

Серый1779 · 29-Янв-15 15:57 (3 года 6 месяцев назад, ред. 31-Янв-15 14:01)

[Цитировать] 

Бык и Шпиндель
Год выпуска: 2014
Производство: ПЦ "Браво" по заказу НТВ
Жанр: Детектив, комедия
Продолжительность: ~0:45:00 серия
Субтитры: нет
Режиссёр: Анатолий Артамонов
В ролях: Игорь Лифанов, Владимир Зайцев, Наталья Гудкова, Александр Мельник (II), Олег Шевчук

Описание: Василий Шпинягин по кличке "Шпиндель", мелкий вор, возвращается после отсидки в родной городок и сталкивается со старым следаком по фамилии Бык. Тем самым, который Шпинделя посадил. Впрочем, самого Быка из органов давно выгнали, и ведёт он теперь жизнь неудачника на старой даче. Рядом по случаю поселяется и Шпиндель, что подозрительного Быка бесит, а у безалаберного весельчака Шпинделя вызывает сплошные в адрес Быка подколы да шуточки. Столкновение неизбежно! Но не это главное. У Быка проблемы с бандитами. Однако и у Шпинделя возникают пробемы с ними же, потому что с их главаря он безуспешно пытается получить старый должок. Так и выходит, что у Быка и Шпинделя враг один. Враг опасный – тут не до мелких обидок, обоим нужно выжить. Но это возможно только в том случае, если бывший вор и бывший мент объединятся. По-настоящему друг другу доверятся. И это – самое трудное, поскольку Бык помешан на старомодных "ментовских" доблестях, а Шпиндель зациклен на таких же допотопных воровских ценностях. И не сойтись бы им никогда, если бы не охота, которую устроили бандиты на Быка и Шпинделя…
Все раздачи сериала: Бык и Шпиндель

Качество: DVB
Формат: MPEG
Видео кодек: MPEG
Аудио кодек: MPEG Audio
Видео: MPEG-2 1024х576 @ 720x576 (16:9) 25.00fps ~5868 Kbps (0.566 bit/pixel)
Аудио: MP2 48000Hz 2 channels 192 Кбит/сек
Сторонней рекламы нет!
MediaInfo
Общее
Полное имя : F:\Бык и Шпиндель DVB\Бык и Шпиндель 01_серия_DVB_by_Wowa63_&_Серый1779.mpg
Формат : MPEG-PS
Размер файла : 1,91 Гбайт
Продолжительность : 44 м.
Общий поток : 6184 Кбит/сек
Видео
Идентификатор : 224 (0xE0)
Формат : MPEG Video
Версия формата : Version 2
Профиль формата : Main@Main
Параметр BVOP формата : Да
Параметр матрицы формата : По умолчанию
Продолжительность : 44 м.
Вид битрейта : Переменный
Битрейт : 5868 Кбит/сек
Номинальный битрейт : 7000 Кбит/сек
Ширина : 720 пикс.
Высота : 576 пикс.
Соотношение сторон : 16:9
Частота кадров : 25,000 кадр/сек
Стандарт вещания : PAL
Цветовое пространство : YUV
Подвыборка цветности : 4:2:0
Битовая глубина : 8 бит
Тип развёртки : Прогрессивная
Порядок развёртки : Нижнее поле первое
Метод сжатия : С потерями
Бит/(Пиксели*Кадры) : 0.566
Размер потока : 1,81 Гбайт (95%)
Аудио
Идентификатор : 192 (0xC0)
Формат : MPEG Audio
Версия формата : Version 1
Профиль формата : Layer 2
Продолжительность : 44 м.
Вид битрейта : Постоянный
Битрейт : 192 Кбит/сек
Каналы : 2 канала
Частота : 48,0 КГц
Метод сжатия : С потерями
Размер потока : 60,7 Мбайт (3%)
Запись:
Монтаж и оформление:
Раздача группы:
Отдельная громадная благодарность Media-Art-Club за созданный постер к раздаче.
Внимание ! Раздача ведётся путём добавления новых серий
Внимание! Раздача ведётся путём добавления новых серий; при каждом добавлении создётся новый торрент. Чтобы начать докачку новой серии, пользователям необходимо сделать следующее:
(1) остановить скачивание,
(2) удалить старый торрент у себя из клиента (старые серии удалять не надо),
(3) скачать новый торрент и запустить его у себя в клиенте вместо старого, при этом указать клиенту путь в старую папку куда и должно происходить скачивание новых серий.
Ваш клиент при этом должен произвести хеширование (проверку) старой папки (если не производит сам - помогите ему сделать это), и будет докачивать только те серии которых у вас ещё нет. Старые серии при этом не удаляются, а продолжают раздаваться!
Eсли вы уже удалили старые серии, то предотвратить повторную закачку старых серий можно, отжав галочку в соответсвующих местах при запуске нового торрента. По возможности, желательно не удалять старые серии как можно дольше чтобы релизёр не столько продолжал раздавать старые серии, а смог сконцентрироваться на новых.
ВНИМАНИЕ! ТОРРЕНТ ПЕРЕЗАЛИТ! ДОБАВЛЕНА 4-ая СЕРИИ!
Скриншоты
[Профиль]  [ЛС] 
 

Серый1779

Top Seed 07* 2560r

Стаж: 8 лет 3 месяца

Сообщений: 7853

Серый1779 · 31-Янв-15 00:32 (спустя 1 день 8 часов)

[Цитировать] 

ОБНОВЛЯЕМСЯ!!
ДОБАВЛЕНА 4-ая СЕРИЯ!
[Профиль]  [ЛС] 

raisa2010

Стаж: 8 лет 6 месяцев

Сообщений: 364


raisa2010 · 24-Апр-15 04:17 (спустя 2 месяца 24 дня)

[Цитировать] 

Фильм простой, лёгкий, на вечерок посмотреть можно. Очень хорошо играет В. Зайцев.
[Профиль]  [ЛС] 

bot · 17-Апр-18 07:29 (спустя 2 года 11 месяцев)

Тема была перенесена из форума Русские сериалы в форум Архив (Русские сериалы)
Сударыня
 
 
Ответить
Loading...
Error