Адрес РуТрекера для пользователей РФ - MainTracker.org

Расскажи друзьям:  

(Mathcore) The End - Elementary - 2007, FLAC (tracks+.cue), lossless

Страницы:  1

Ответить
Автор
Сообщение

Доброжир

Стаж: 9 лет 1 месяц

Сообщений: 57


Доброжир · 30-Авг-09 08:52 (8 лет 8 месяцев назад)

The End - Elementary
Жанр: Mathcore
Год выпуска диска: 2007
Производитель диска: US
Аудио кодек: FLAC
Тип рипа: tracks+.cue
Битрейт аудио: lossless
Продолжительность: 51:09
Трэклист:
1. Dangerous
2. The Never Ever Aftermath
3. Animals
4. The Moth And I
5. Throwing Stones
6. My Abyss
7. Awake?
8. A Fell Wind
9. In Distress
10. And Always
скрытый текст
Exact Audio Copy V0.99 prebeta 4 from 23. January 2008
EAC extraction logfile from 31. May 2008, 11:05
The End / Elementary
Used drive : HL-DT-STDVD-RAM GH10L Adapter: 3 ID: 0
Read mode : Secure
Utilize accurate stream : Yes
Defeat audio cache : Yes
Make use of C2 pointers : Yes
Read offset correction : 667
Overread into Lead-In and Lead-Out : No
Fill up missing offset samples with silence : Yes
Delete leading and trailing silent blocks : No
Null samples used in CRC calculations : Yes
Used interface : Installed external ASPI interface
Gap handling : Appended to previous track
Used output format : User Defined Encoder
Selected bitrate : 128 kBit/s
Quality : High
Add ID3 tag : No
Command line compressor : C:\Program Files\Exact Audio Copy\Flac\flac.exe
Additional command line options : -8 -e -m -A tukey(0.25) -A bartlett -A blackman_harris_4term_92db -A gauss(0.1875) -A bartlett_hann -A kaiser_bessel -b 4096 -V -T "artist=%a" -T "title=%t" -T "album=%g" -T "date=%y" -T "tracknumber=%n" -T "genre=%m" %s --
TOC of the extracted CD
Track | Start | Length | Start sector | End sector
---------------------------------------------------------
1 | 0:00.00 | 6:08.63 | 0 | 27662
2 | 6:08.63 | 4:45.13 | 27663 | 49050
3 | 10:54.01 | 3:26.36 | 49051 | 64536
4 | 14:20.37 | 5:29.05 | 64537 | 89216
5 | 19:49.42 | 3:29.66 | 89217 | 104957
6 | 23:19.33 | 4:50.06 | 104958 | 126713
7 | 28:09.39 | 3:43.13 | 126714 | 143451
8 | 31:52.52 | 4:02.51 | 143452 | 161652
9 | 35:55.28 | 5:54.50 | 161653 | 188252
10 | 41:50.03 | 9:18.50 | 188253 | 230152
Track 1
Filename C:\Users\Dustin\Music\The End - Elementary (2007)\The End - Elementary (2007)\01 - Dangerous.wav
Pre-gap length 0:00:02.00
Peak level 100.0 %
Track quality 100.0 %
Test CRC 30756EE5
Copy CRC 30756EE5
Accurately ripped (confidence 4) [C2C664EF]
Copy OK
Track 2
Filename C:\Users\Dustin\Music\The End - Elementary (2007)\The End - Elementary (2007)\02 - The Never Ever Aftermath.wav
Peak level 100.0 %
Track quality 100.0 %
Test CRC 4EF52C4B
Copy CRC 4EF52C4B
Accurately ripped (confidence 4) [7C9A6F97]
Copy OK
Track 3
Filename C:\Users\Dustin\Music\The End - Elementary (2007)\The End - Elementary (2007)\03 - Animals.wav
Peak level 100.0 %
Track quality 100.0 %
Test CRC 9EE35CC1
Copy CRC 9EE35CC1
Accurately ripped (confidence 4) [8EDC8A09]
Copy OK
Track 4
Filename C:\Users\Dustin\Music\The End - Elementary (2007)\The End - Elementary (2007)\04 - The Moth And I.wav
Peak level 100.0 %
Track quality 100.0 %
Test CRC 7515133E
Copy CRC 7515133E
Accurately ripped (confidence 4) [AE0B7EF0]
Copy OK
Track 5
Filename C:\Users\Dustin\Music\The End - Elementary (2007)\The End - Elementary (2007)\05 - Throwing Stones.wav
Peak level 100.0 %
Track quality 100.0 %
Test CRC A7CBCAAF
Copy CRC A7CBCAAF
Accurately ripped (confidence 4) [F4E7DCB3]
Copy OK
Track 6
Filename C:\Users\Dustin\Music\The End - Elementary (2007)\The End - Elementary (2007)\06 - My Abyss.wav
Peak level 100.0 %
Track quality 100.0 %
Test CRC B828C295
Copy CRC B828C295
Accurately ripped (confidence 4) [F58291D4]
Copy OK
Track 7
Filename C:\Users\Dustin\Music\The End - Elementary (2007)\The End - Elementary (2007)\07 - Awake .wav
Peak level 100.0 %
Track quality 100.0 %
Test CRC C07A7012
Copy CRC C07A7012
Accurately ripped (confidence 4) [EB749874]
Copy OK
Track 8
Filename C:\Users\Dustin\Music\The End - Elementary (2007)\The End - Elementary (2007)\08 - A Fell Wind.wav
Peak level 99.0 %
Track quality 100.0 %
Test CRC 11C5E0E0
Copy CRC 11C5E0E0
Accurately ripped (confidence 4) [C63A4CC6]
Copy OK
Track 9
Filename C:\Users\Dustin\Music\The End - Elementary (2007)\The End - Elementary (2007)\09 - In Distress.wav
Peak level 100.0 %
Track quality 100.0 %
Test CRC 23179B3F
Copy CRC 23179B3F
Accurately ripped (confidence 4) [DDEB0AE7]
Copy OK
Track 10
Filename C:\Users\Dustin\Music\The End - Elementary (2007)\The End - Elementary (2007)\10 - And Always....wav
Peak level 100.0 %
Track quality 100.0 %
Test CRC 6D86992C
Copy CRC 6D86992C
Accurately ripped (confidence 4) [0E164622]
Copy OK
All tracks accurately ripped
No errors occurred
End of status report
Download
Чтобы скачать .torrent файл необходима регистрация
Сайт не распространяет и не хранит электронные версии произведений, а лишь предоставляет доступ к создаваемому пользователями каталогу ссылок на торрент-файлы, которые содержат только списки хеш-сумм
[Профиль]  [ЛС] 
 

hopesfall

Стаж: 9 лет 11 месяцев

Сообщений: 291

hopesfall · 01-Сен-09 10:46 (спустя 2 дня 1 час)

[Цитировать] 

Сидировать то будем?
[Профиль]  [ЛС] 

jiqwenn

Стаж: 8 лет 11 месяцев

Сообщений: 1397

jiqwenn · 01-Сен-09 12:18 (спустя 1 час 32 мин.)

[Цитировать] 

Доброжир флак случаем не с вафли взят? то есть с меня?
[Профиль]  [ЛС] 

Доброжир

Стаж: 9 лет 1 месяц

Сообщений: 57


Доброжир · 02-Сен-09 13:56 (спустя 1 день 1 час)

[Цитировать] 

jiqwenn писал(а):
Доброжир флак случаем не с вафли взят? то есть с меня?
Нет, не с вафель, с медиапортала
[Профиль]  [ЛС] 

takashikeeper

Стаж: 8 лет 2 месяца

Сообщений: 3


takashikeeper · 12-Мар-10 23:15 (спустя 6 месяцев)

[Цитировать] 

Транслит!
Как правильно писать на форуме!
Русский язык для иностранных гостей
darkbrides
[Профиль]  [ЛС] 

THRAIIIER

Стаж: 8 лет 4 месяца

Сообщений: 92

THRAIIIER · 19-Дек-11 09:06 (спустя 1 год 9 месяцев)

[Цитировать] 

Офигенный альбом офигенной группы (которая, к сожалению, распалась). Давно искал в lossless. Спасибо автору темы.
[Профиль]  [ЛС] 

jared_wanted

Стаж: 8 лет

Сообщений: 85

jared_wanted · 25-Апр-18 20:23 (спустя 6 лет 4 месяца)

[Цитировать] 

раздайте, пжлста.
[Профиль]  [ЛС] 
 
Ответить
Loading...
Error