Адрес РуТрекера для пользователей РФ - MainTracker.org

Расскажи друзьям:  

Мертвое сердце / Серии: 1-4 из 4 (Артур Румынский) [2014, Детектив, криминальный фильм, WEBRip]

Страницы:  1

Ответить
Автор
Сообщение

Серый1779

Top Seed 07* 2560r

Стаж: 8 лет 4 месяца

Сообщений: 7851

Серый1779 · 23-Сен-14 11:39 (4 года назад, ред. 23-Сен-14 12:11)

[Цитировать] 

Мертвое сердце
Год выпуска: 2014
Производство: Россия, ООО «АЛЬЯНС ПРОФИ»
Жанр: Детектив, криминальный фильм
Продолжительность: ~0:45:00 серия
Субтитры: нет
Режиссёр: Артур Румынский
В ролях: Михаил Евланов, Евгений Воловенко, Мария Гузеева, Мария Киреева, Руслан Ягудин, Алексей Рыжков, Константин Адаев, Ирина Бразговка, Светлана Рубан, Павел Новиков, Кирилл Захаров

Описание: Ученый с большой буквы и талантливый изобретатель – химик Артём Васильев — разработал уникальное лекарство против рака. Но его мечте спасти тысячи жизней кто-то жестоко помешал. Неизвестные подожгли лабораторию Артёма, во время инцидента погибла его жена, исчез сын, канули в Лету все архивы и данные разработок. Новый удар Васильеву нанесли следственные органы: теперь он – главный подозреваемый в поджоге и убийстве жены. От ареста его спасает только то, что на месте преступления задерживают исполнителя – бывшего военного химика Фёдора Пашнина, которого с ожогами и под конвоем доставляют в больницу. Одержимый местью Артём проникает в палату к Фёдору, чтобы расправиться с тем, кто отнял у него самое дорогое в жизни. И там совершенно неожиданно сталкивается с киллером, охотящимся на Пашнина. Своим вмешательством Артём, сам того не желая, спасает своего врага, который сообщает: его сын жив, и только он знает, как найти мальчика.....
Все раздачи сериала: Мертвое сердце

Качество: WEBRip
Формат: AVI
Видео кодек: XviD
Аудио кодек: AC-3
Видео: XviD, 720 х 400 (16:9), 25,000 кадр/сек, ~ 1800 kbps, 0.25 bit/pixel
Аудио: AC-3, 48000 Hz, ~192 Kbps, 2 канала
Сторонней рекламы нет!
MediaInfo
Общее
Полное имя : F:\Mertvoe.serdtse.2014.WEB-DLRip\Mertvoe.serdtse.(01.seriya.iz.04).2014.WEB-DLRip.by.Kn1Ght.avi
Формат : AVI
Формат/Информация : Audio Video Interleave
Размер файла : 646 Мбайт
Продолжительность : 45 м.
Общий поток : 2003 Кбит/сек
Название фильма : Mertvoe.serdtse.(01.seriya.iz.04).2014.WEB-DL.(1080p).MediaClub
Программа кодирования : Lavf55.43.100
Видео
Идентификатор : 0
Формат : MPEG-4 Visual
Профиль формата : Simple@L3
Параметр BVOP формата : Нет
Параметр QPel формата : Нет
Параметр GMC формата : Без точки перехода
Параметр матрицы формата : Default (H.263)
Идентификатор кодека : XVID
Идентификатор кодека/Подсказка : XviD
Продолжительность : 45 м.
Битрейт : 1800 Кбит/сек
Ширина : 720 пикс.
Высота : 400 пикс.
Соотношение сторон : 16:9
Частота кадров : 25,000 кадр/сек
Цветовое пространство : YUV
Подвыборка цветности : 4:2:0
Битовая глубина : 8 бит
Тип развёртки : Прогрессивная
Метод сжатия : С потерями
Бит/(Пиксели*Кадры) : 0.250
Размер потока : 580 Мбайт (90%)
Библиотека кодирования : XviD 64
Аудио
Идентификатор : 1
Формат : AC-3
Формат/Информация : Audio Coding 3
Расширение режима : CM (complete main)
Идентификатор кодека : 2000
Продолжительность : 45 м.
Вид битрейта : Постоянный
Битрейт : 192 Кбит/сек
Каналы : 2 канала
Расположение каналов : Front: L R
Частота : 48,0 КГц
Битовая глубина : 16 бит
Метод сжатия : С потерями
Размер потока : 61,9 Мбайт (10%)
Выравнивание : Соединение по промежуткам
Продолжительность промежутка : 32 мс. (0,80 видеокадр)
Раздача группы:
Отдельное спасибо Kn1GhT за предоставление материала.
Внимание ! Раздача ведётся путём добавления новых серий
Внимание! Раздача ведётся путём добавления новых серий; при каждом добавлении создётся новый торрент. Чтобы начать докачку новой серии, пользователям необходимо сделать следующее:
(1) остановить скачивание,
(2) удалить старый торрент у себя из клиента (старые серии удалять не надо),
(3) скачать новый торрент и запустить его у себя в клиенте вместо старого, при этом указать клиенту путь в старую папку куда и должно происходить скачивание новых серий.
Ваш клиент при этом должен произвести хеширование (проверку) старой папки (если не производит сам - помогите ему сделать это), и будет докачивать только те серии которых у вас ещё нет. Старые серии при этом не удаляются, а продолжают раздаваться!
Eсли вы уже удалили старые серии, то предотвратить повторную закачку старых серий можно, отжав галочку в соответсвующих местах при запуске нового торрента. По возможности, желательно не удалять старые серии как можно дольше чтобы релизёр не столько продолжал раздавать старые серии, а смог сконцентрироваться на новых.
ВНИМАНИЕ! ТОРРЕНТ ПЕРЕЗАЛИТ! ДОБАВЛЕНА 4-ая СЕРИИ!
Скриншоты
[Профиль]  [ЛС] 
 

ДЭВИД221

Стаж: 8 лет 5 месяцев

Сообщений: 117


ДЭВИД221 · 25-Сен-14 16:11 (спустя 2 дня 4 часа)

[Цитировать] 

Моё мнение... нельзя так подробно описывать события в фильме... просто смотреть не интересно!
[Профиль]  [ЛС] 

Logan2090

Стаж: 8 лет 4 месяца

Сообщений: 22


Logan2090 · 25-Сен-14 19:12 (спустя 3 часа)

[Цитировать] 

описание...это только пролог к действию...все впереди...нормально. А Серому ОГРОМНОЕ спасибо. всегда ищу его раздачи....все СУПЕР!!!
[Профиль]  [ЛС] 

essok

Стаж: 8 лет 6 месяцев

Сообщений: 30


essok · 08-Ноя-14 01:08 (спустя 1 месяц 12 дней)

[Цитировать] 

ДЭВИД221 писал(а):
65257837Моё мнение... нельзя так подробно описывать события в фильме... просто смотреть не интересно!
Совершенно верно, нужно просто обозначать одной буквой ,например Х - хорошее
и еще Х- что означает...ну ты понял
[Профиль]  [ЛС] 

CSKAfan2013

Стаж: 8 лет

Сообщений: 1008

CSKAfan2013 · 06-Янв-15 20:13 (спустя 1 месяц 28 дней)

[Цитировать] 

Серый1779
исправьте разрешение в описании
[Профиль]  [ЛС] 

Маргаритkа

Admin

Стаж: 11 лет 2 месяца

Сообщений: 9101

Маргаритkа · 26-Май-18 23:10 (спустя 3 года 4 месяца)

[Цитировать] 

http://1.maintracker.org/forum/viewtopic.php?t=5566106
Поглощено

[Профиль]  [ЛС] 

bot · 14-Июн-18 00:08 (спустя 18 дней)

Тема была перенесена из форума Русские сериалы в форум Архив (Русские сериалы)
Сударыня
 

Cittyman

Стаж: 10 лет 1 месяц

Сообщений: 160


Cittyman · 16-Июн-18 04:27 (спустя 20 дней)

[Цитировать] 

у кого нибудь осталась раздача. Встаньте,плиз, 7% осталось всего
[Профиль]  [ЛС] 
 
Ответить
Loading...
Error