(Folk, Татарская эстрада) [CD] Зоhрэ Сэхэбиева - Татар халык жырлары - 2017, FLAC (tracks+.cue), lossless

Страницы:  1

Ответить
Автор
Сообщение

RAV63

Стаж: 9 лет 7 месяцев

Сообщений: 288

RAV63 · 03-Июн-17 17:03 (1 год 5 месяцев назад)

Зоhрэ Сэхэбиева - Татар халык жырлары
Жанр: Folk, Татарская эстрада
Носитель: CD
Страна-производитель диска (релиза): Россия, Татарстан
Год издания: 2017
Издатель (лейбл): Аксу Рекордс
Страна исполнителя (группы): Россия, Татарстан
Аудиокодек: FLAC (*.flac)
Тип рипа: tracks+.cue
Битрейт аудио: lossless
Продолжительность: 01:14:00
Источник (релизер): Собственный рип
Наличие сканов в содержимом раздачи: нет
Треклист:
01. Галиябану
02. Баламышкин
03. Зилэйлук
04. Зэй буйлары
05. Козге ачы жиллэрдэ
06. Арча
07. Дисэнэ
08. Кичке авыл
09. Ах, бу гомерлэр
10. Уракчы кыз
11. Уйна тальян гармунынны
12. Васбикамилэ
13. Алым жэл тугел сина
14. Язгы голем
15. Юлчы жыры
16. Керфеклэрен синен нигэ кара
17. Таhир-Зоhрэ
18. Яна кара урман
19. Дим-дим
20. Кызыл толке
Лог создания рипа
Exact Audio Copy V1.3 from 2. September 2016
Отчёт EAC об извлечении, выполненном 1. июня 2017, 12:00
Зоhрэ Сэхэбиева / Татар халык жырлары
Дисковод: ASUS DRW-24B5ST Adapter: 1 ID: 0
Режим чтения : Достоверность
Использование точного потока : Да
Отключение кэша аудио : Да
Использование указателей C2 : Нет
Коррекция смещения при чтении : 6
Способность читать области Lead-in и Lead-out : Нет
Заполнение пропущенных сэмплов тишиной : Да
Удаление блоков с тишиной в начале и конце : Нет
При вычислениях CRC использовались нулевые сэмплы : Да
Интерфейс : Встроенный Win32-интерфейс для Win NT/2000
Обработка зазоров : Добавлено к предыдущему треку
Выходной формат : Пользовательский кодировщик
Выбранный битрейт : 128 kBit/s
Качество : Высокий
Добавление ID3-тега : Нет
Утилита сжатия : C:\Program Files (x86)\Exact Audio Copy\Flac\flac.exe
Дополнительные параметры : -V -8 -T "Genre=%genre%" -T "Artist=%artist%" -T "Title=%title%" -T "Album=%albumtitle%" -T "Date=%year%" -T "Tracknumber=%tracknr%" -T "Comment=%comment%" %source%
TOC извлечённого CD
Трек | Старт | Длительность | Начальный сектор | Конечный сектор
---------------------------------------------------------------------
1 | 0:00.00 | 3:55.60 | 0 | 17684
2 | 3:55.60 | 2:33.48 | 17685 | 29207
3 | 6:29.33 | 5:47.62 | 29208 | 55294
4 | 12:17.20 | 3:13.08 | 55295 | 69777
5 | 15:30.28 | 4:20.49 | 69778 | 89326
6 | 19:51.02 | 4:05.47 | 89327 | 107748
7 | 23:56.49 | 3:11.40 | 107749 | 122113
8 | 27:08.14 | 3:19.61 | 122114 | 137099
9 | 30:28.00 | 3:19.21 | 137100 | 152045
10 | 33:47.21 | 4:01.57 | 152046 | 170177
11 | 37:49.03 | 5:05.09 | 170178 | 193061
12 | 42:54.12 | 3:35.44 | 193062 | 209230
13 | 46:29.56 | 2:16.49 | 209231 | 219479
14 | 48:46.30 | 3:42.38 | 219480 | 236167
15 | 52:28.68 | 4:57.60 | 236168 | 258502
16 | 57:26.53 | 2:36.34 | 258503 | 270236
17 | 60:03.12 | 4:44.57 | 270237 | 291593
18 | 64:47.69 | 3:02.42 | 291594 | 305285
19 | 67:50.36 | 2:33.07 | 305286 | 316767
20 | 70:23.43 | 3:36.33 | 316768 | 333000
Трек 1
Имя файла C:\Зоhрэ Сэхэбиева - Татар халык жырлары (2017) [FLAC]\01. Галиябану.wav
Длина предзазора 0:00:02.00
Пиковый уровень 29.3 %
Скорость извлечения 2.0 X
Качество трека 100.0 %
CRC теста 9E28898F
CRC копии 9E28898F
Трек не обнаружен в базе AccurateRip
Копирование... OK
Трек 2
Имя файла C:\Зоhрэ Сэхэбиева - Татар халык жырлары (2017) [FLAC]\02. Баламышкин.wav
Пиковый уровень 29.4 %
Скорость извлечения 2.0 X
Качество трека 100.0 %
CRC теста 0B733242
CRC копии 0B733242
Трек не обнаружен в базе AccurateRip
Копирование... OK
Трек 3
Имя файла C:\Зоhрэ Сэхэбиева - Татар халык жырлары (2017) [FLAC]\03. Зилэйлук.wav
Пиковый уровень 32.1 %
Скорость извлечения 2.5 X
Качество трека 100.0 %
CRC теста AB335CA0
CRC копии AB335CA0
Трек не обнаружен в базе AccurateRip
Копирование... OK
Трек 4
Имя файла C:\Зоhрэ Сэхэбиева - Татар халык жырлары (2017) [FLAC]\04. Зэй буйлары.wav
Пиковый уровень 30.8 %
Скорость извлечения 2.5 X
Качество трека 100.0 %
CRC теста 9023775F
CRC копии 9023775F
Трек не обнаружен в базе AccurateRip
Копирование... OK
Трек 5
Имя файла C:\Зоhрэ Сэхэбиева - Татар халык жырлары (2017) [FLAC]\05. Козге ачы жиллэрдэ.wav
Пиковый уровень 32.1 %
Скорость извлечения 2.7 X
Качество трека 100.0 %
CRC теста 03A6B6E7
CRC копии 03A6B6E7
Трек не обнаружен в базе AccurateRip
Копирование... OK
Трек 6
Имя файла C:\Зоhрэ Сэхэбиева - Татар халык жырлары (2017) [FLAC]\06. Арча.wav
Пиковый уровень 32.2 %
Скорость извлечения 2.9 X
Качество трека 100.0 %
CRC теста ECB8A84B
CRC копии ECB8A84B
Трек не обнаружен в базе AccurateRip
Копирование... OK
Трек 7
Имя файла C:\Зоhрэ Сэхэбиева - Татар халык жырлары (2017) [FLAC]\07. Дисэнэ.wav
Пиковый уровень 31.6 %
Скорость извлечения 2.5 X
Качество трека 99.9 %
CRC теста 48AABC6E
CRC копии 48AABC6E
Трек не обнаружен в базе AccurateRip
Копирование... OK
Трек 8
Имя файла C:\Зоhрэ Сэхэбиева - Татар халык жырлары (2017) [FLAC]\08. Кичке авыл.wav
Пиковый уровень 33.7 %
Скорость извлечения 2.6 X
Качество трека 99.9 %
CRC теста AF14D410
CRC копии AF14D410
Трек не обнаружен в базе AccurateRip
Копирование... OK
Трек 9
Имя файла C:\Зоhрэ Сэхэбиева - Татар халык жырлары (2017) [FLAC]\09. Ах, бу гомерлэр.wav
Пиковый уровень 29.0 %
Скорость извлечения 3.1 X
Качество трека 100.0 %
CRC теста ED5501B4
CRC копии ED5501B4
Трек не обнаружен в базе AccurateRip
Копирование... OK
Трек 10
Имя файла C:\Зоhрэ Сэхэбиева - Татар халык жырлары (2017) [FLAC]\10. Уракчы кыз.wav
Пиковый уровень 30.9 %
Скорость извлечения 3.3 X
Качество трека 100.0 %
CRC теста 300DA345
CRC копии 300DA345
Трек не обнаружен в базе AccurateRip
Копирование... OK
Трек 11
Имя файла C:\Зоhрэ Сэхэбиева - Татар халык жырлары (2017) [FLAC]\11. Уйна тальян гармунынны.wav
Пиковый уровень 31.2 %
Скорость извлечения 3.2 X
Качество трека 99.9 %
CRC теста AFA548F4
CRC копии AFA548F4
Трек не обнаружен в базе AccurateRip
Копирование... OK
Трек 12
Имя файла C:\Зоhрэ Сэхэбиева - Татар халык жырлары (2017) [FLAC]\12. Васбикамилэ.wav
Пиковый уровень 27.2 %
Скорость извлечения 3.4 X
Качество трека 100.0 %
CRC теста B9F5C8C4
CRC копии B9F5C8C4
Трек не обнаружен в базе AccurateRip
Копирование... OK
Трек 13
Имя файла C:\Зоhрэ Сэхэбиева - Татар халык жырлары (2017) [FLAC]\13. Алым жэл тугел сина.wav
Пиковый уровень 30.0 %
Скорость извлечения 3.3 X
Качество трека 100.0 %
CRC теста 5F2EA9A3
CRC копии 5F2EA9A3
Трек не обнаружен в базе AccurateRip
Копирование... OK
Трек 14
Имя файла C:\Зоhрэ Сэхэбиева - Татар халык жырлары (2017) [FLAC]\14. Язгы голем.wav
Пиковый уровень 30.4 %
Скорость извлечения 3.7 X
Качество трека 100.0 %
CRC теста B4D782B3
CRC копии B4D782B3
Трек не обнаружен в базе AccurateRip
Копирование... OK
Трек 15
Имя файла C:\Зоhрэ Сэхэбиева - Татар халык жырлары (2017) [FLAC]\15. Юлчы жыры.wav
Пиковый уровень 30.6 %
Скорость извлечения 3.5 X
Качество трека 99.9 %
CRC теста 3579FE3D
CRC копии 3579FE3D
Трек не обнаружен в базе AccurateRip
Копирование... OK
Трек 16
Имя файла C:\Зоhрэ Сэхэбиева - Татар халык жырлары (2017) [FLAC]\16. Керфеклэрен синен нигэ кара.wav
Пиковый уровень 29.9 %
Скорость извлечения 3.6 X
Качество трека 100.0 %
CRC теста AD282496
CRC копии AD282496
Трек не обнаружен в базе AccurateRip
Копирование... OK
Трек 17
Имя файла C:\Зоhрэ Сэхэбиева - Татар халык жырлары (2017) [FLAC]\17. Таhир-Зоhрэ.wav
Пиковый уровень 30.7 %
Скорость извлечения 4.1 X
Качество трека 100.0 %
CRC теста E0ECBC22
CRC копии E0ECBC22
Трек не обнаружен в базе AccurateRip
Копирование... OK
Трек 18
Имя файла C:\Зоhрэ Сэхэбиева - Татар халык жырлары (2017) [FLAC]\18. Яна кара урман.wav
Пиковый уровень 32.0 %
Скорость извлечения 3.4 X
Качество трека 99.9 %
CRC теста 18DCA0C2
CRC копии 18DCA0C2
Трек не обнаружен в базе AccurateRip
Копирование... OK
Трек 19
Имя файла C:\Зоhрэ Сэхэбиева - Татар халык жырлары (2017) [FLAC]\19. Дим-дим.wav
Пиковый уровень 29.7 %
Скорость извлечения 3.7 X
Качество трека 100.0 %
CRC теста 171BFEBF
CRC копии 171BFEBF
Трек не обнаружен в базе AccurateRip
Копирование... OK
Трек 20
Имя файла C:\Зоhрэ Сэхэбиева - Татар халык жырлары (2017) [FLAC]\20. Кызыл толке.wav
Пиковый уровень 31.4 %
Скорость извлечения 3.6 X
Качество трека 99.9 %
CRC теста 97CB6099
CRC копии 97CB6099
Трек не обнаружен в базе AccurateRip
Копирование... OK
Ни одного трека нет в базе AccurateRip
Ошибок не произошло
Конец отчёта
==== Контрольная сумма отчёта B8DA4F1C55552C548EF49248E674018A8D93A68EE43855541B36447B5439A828 ====
Содержание индексной карты (.CUE)
REM DATE 2017
REM DISCID 26115814
REM COMMENT "ExactAudioCopy v1.3"
PERFORMER "Зоhрэ Сэхэбиева"
TITLE "Татар халык жырлары"
REM COMPOSER ""
FILE "01. Галиябану.wav" WAVE
TRACK 01 AUDIO
TITLE "Галиябану"
PERFORMER "Зоhрэ Сэхэбиева"
REM COMPOSER ""
INDEX 01 00:00:00
FILE "02. Баламышкин.wav" WAVE
TRACK 02 AUDIO
TITLE "Баламышкин"
PERFORMER "Зоhрэ Сэхэбиева"
REM COMPOSER ""
INDEX 01 00:00:00
FILE "03. Зилэйлук.wav" WAVE
TRACK 03 AUDIO
TITLE "Зилэйлук"
PERFORMER "Зоhрэ Сэхэбиева"
REM COMPOSER ""
INDEX 01 00:00:00
FILE "04. Зэй буйлары.wav" WAVE
TRACK 04 AUDIO
TITLE "Зэй буйлары"
PERFORMER "Зоhрэ Сэхэбиева"
REM COMPOSER ""
INDEX 01 00:00:00
FILE "05. Козге ачы жиллэрдэ.wav" WAVE
TRACK 05 AUDIO
TITLE "Козге ачы жиллэрдэ"
PERFORMER "Зоhрэ Сэхэбиева"
REM COMPOSER ""
INDEX 01 00:00:00
FILE "06. Арча.wav" WAVE
TRACK 06 AUDIO
TITLE "Арча"
PERFORMER "Зоhрэ Сэхэбиева"
REM COMPOSER ""
INDEX 01 00:00:00
FILE "07. Дисэнэ.wav" WAVE
TRACK 07 AUDIO
TITLE "Дисэнэ"
PERFORMER "Зоhрэ Сэхэбиева"
REM COMPOSER ""
INDEX 01 00:00:00
FILE "08. Кичке авыл.wav" WAVE
TRACK 08 AUDIO
TITLE "Кичке авыл"
PERFORMER "Зоhрэ Сэхэбиева"
REM COMPOSER ""
INDEX 01 00:00:00
FILE "09. Ах, бу гомерлэр.wav" WAVE
TRACK 09 AUDIO
TITLE "Ах, бу гомерлэр"
PERFORMER "Зоhрэ Сэхэбиева"
REM COMPOSER ""
INDEX 01 00:00:00
FILE "10. Уракчы кыз.wav" WAVE
TRACK 10 AUDIO
TITLE "Уракчы кыз"
PERFORMER "Зоhрэ Сэхэбиева"
REM COMPOSER ""
INDEX 01 00:00:00
FILE "11. Уйна тальян гармунынны.wav" WAVE
TRACK 11 AUDIO
TITLE "Уйна тальян гармунынны"
PERFORMER "Зоhрэ Сэхэбиева"
REM COMPOSER ""
INDEX 01 00:00:00
FILE "12. Васбикамилэ.wav" WAVE
TRACK 12 AUDIO
TITLE "Васбикамилэ"
PERFORMER "Зоhрэ Сэхэбиева"
REM COMPOSER ""
INDEX 01 00:00:00
FILE "13. Алым жэл тугел сина.wav" WAVE
TRACK 13 AUDIO
TITLE "Алым жэл тугел сина"
PERFORMER "Зоhрэ Сэхэбиева"
REM COMPOSER ""
INDEX 01 00:00:00
FILE "14. Язгы голем.wav" WAVE
TRACK 14 AUDIO
TITLE "Язгы голем"
PERFORMER "Зоhрэ Сэхэбиева"
REM COMPOSER ""
INDEX 01 00:00:00
FILE "15. Юлчы жыры.wav" WAVE
TRACK 15 AUDIO
TITLE "Юлчы жыры"
PERFORMER "Зоhрэ Сэхэбиева"
REM COMPOSER ""
INDEX 01 00:00:00
FILE "16. Керфеклэрен синен нигэ кара.wav" WAVE
TRACK 16 AUDIO
TITLE "Керфеклэрен синен нигэ кара"
PERFORMER "Зоhрэ Сэхэбиева"
REM COMPOSER ""
INDEX 01 00:00:00
FILE "17. Таhир-Зоhрэ.wav" WAVE
TRACK 17 AUDIO
TITLE "Таhир-Зоhрэ"
PERFORMER "Зоhрэ Сэхэбиева"
REM COMPOSER ""
INDEX 01 00:00:00
FILE "18. Яна кара урман.wav" WAVE
TRACK 18 AUDIO
TITLE "Яна кара урман"
PERFORMER "Зоhрэ Сэхэбиева"
REM COMPOSER ""
INDEX 01 00:00:00
FILE "19. Дим-дим.wav" WAVE
TRACK 19 AUDIO
TITLE "Дим-дим"
PERFORMER "Зоhрэ Сэхэбиева"
REM COMPOSER ""
INDEX 01 00:00:00
FILE "20. Кызыл толке.wav" WAVE
TRACK 20 AUDIO
TITLE "Кызыл толке"
PERFORMER "Зоhрэ Сэхэбиева"
REM COMPOSER ""
INDEX 01 00:00:00
Download
Чтобы скачать .torrent файл необходима регистрация
Сайт не распространяет и не хранит электронные версии произведений, а лишь предоставляет доступ к создаваемому пользователями каталогу ссылок на торрент-файлы, которые содержат только списки хеш-сумм
[Профиль]  [ЛС] 
 

Джинсы

Стаж: 9 лет 5 месяцев

Сообщений: 1629


Джинсы · 15-Сен-17 03:56 (спустя 3 месяца 11 дней)

[Цитировать] 

Великая Зухра Сахабиева!!! Сердечно благодарю!!!
[Профиль]  [ЛС] 

Aidar2008

Стаж: 9 лет 5 месяцев

Сообщений: 25

Aidar2008 · 16-Июн-18 15:42 (спустя 9 месяцев, ред. 16-Июн-18 15:42)

[Цитировать] 

Алло!
Дайте докачать!
Эх, 10 минут не дали докачать...
[Профиль]  [ЛС] 
 
Ответить
Loading...
Error