Адрес РуТрекера для пользователей РФ - MainTracker.org

Расскажи друзьям:  

(Folk) Kate Wolf - 4 альбома + антология (1976 - 2000), FLAC (tracks+.cue), lossless

Страницы:  1

Ответить
Автор
Сообщение

WestOst

Стаж: 11 лет

Сообщений: 414

WestOst · 29-Май-10 19:38 (8 лет 3 месяца назад, ред. 29-Май-10 19:42)

Kate Wolf - 4 альбома + антология (1976 - 2000) Жанр: Folk
Производитель диска: USA
Аудио кодек: FLAC
Тип рипа: tracks+.cue
Битрейт аудио: lossless
Доп. информация: источник - what.cd
Kate Wolf & The Wildwood Flower - Back Roads (1976)

Год выпуска диска: 1994 - Rhino Records
Трэклист:
01. Lately
02. Emma Rose
03. Sitting On The Porch
04. The Redtail Hawk
05. Telluride
06. Goodbye Babe
07. It Ain't In The Wine
08. Tequila & Me
09. Legend In His Time
10. Riding In The Country
11. Oklahoma Going Home
12. Back Roads
cue
REM GENRE Folk
REM DATE 1976
REM DISCID 970A8B0C
REM COMMENT "ExactAudioCopy v0.99pb4"
PERFORMER "Kate Wolf & The Wildwood Flower"
TITLE "Back Roads"
FILE "01 - Lately.wav" WAVE
TRACK 01 AUDIO
TITLE "Lately"
PERFORMER "Kate Wolf & The Wildwood Flower"
PREGAP 00:00:32
INDEX 01 00:00:00
TRACK 02 AUDIO
TITLE "Emma Rose"
PERFORMER "Kate Wolf & The Wildwood Flower"
INDEX 00 04:26:16
FILE "02 - Emma Rose.wav" WAVE
INDEX 01 00:00:00
TRACK 03 AUDIO
TITLE "Sitting On The Porch"
PERFORMER "Kate Wolf & The Wildwood Flower"
INDEX 00 03:37:40
FILE "03 - Sitting On The Porch.wav" WAVE
INDEX 01 00:00:00
TRACK 04 AUDIO
TITLE "The Redtail Hawk"
PERFORMER "Kate Wolf & The Wildwood Flower"
INDEX 00 02:30:25
FILE "04 - The Redtail Hawk.wav" WAVE
INDEX 01 00:00:00
TRACK 05 AUDIO
TITLE "Telluride"
PERFORMER "Kate Wolf & The Wildwood Flower"
INDEX 00 03:58:38
FILE "05 - Telluride.wav" WAVE
INDEX 01 00:00:00
TRACK 06 AUDIO
TITLE "Goodbye Babe"
PERFORMER "Kate Wolf & The Wildwood Flower"
INDEX 00 04:23:45
FILE "06 - Goodbye Babe.wav" WAVE
INDEX 01 00:00:00
TRACK 07 AUDIO
TITLE "It Ain't In The Wine"
PERFORMER "Kate Wolf & The Wildwood Flower"
INDEX 00 02:49:23
FILE "07 - It Ain't In The Wine.wav" WAVE
INDEX 01 00:00:00
TRACK 08 AUDIO
TITLE "Tequila & Me"
PERFORMER "Kate Wolf & The Wildwood Flower"
INDEX 00 03:01:63
FILE "08 - Tequila & Me.wav" WAVE
INDEX 01 00:00:00
TRACK 09 AUDIO
TITLE "Legend In His Time"
PERFORMER "Kate Wolf & The Wildwood Flower"
INDEX 00 03:32:55
FILE "09 - Legend In His Time.wav" WAVE
INDEX 01 00:00:00
TRACK 10 AUDIO
TITLE "Riding In The Country"
PERFORMER "Kate Wolf & The Wildwood Flower"
INDEX 00 04:54:56
FILE "10 - Riding In The Country.wav" WAVE
INDEX 01 00:00:00
TRACK 11 AUDIO
TITLE "Oklahoma Going Home"
PERFORMER "Kate Wolf & The Wildwood Flower"
INDEX 00 02:19:10
FILE "11 - Oklahoma Going Home.wav" WAVE
INDEX 01 00:00:00
TRACK 12 AUDIO
TITLE "Back Roads"
PERFORMER "Kate Wolf & The Wildwood Flower"
INDEX 00 05:00:25
FILE "12 - Back Roads.wav" WAVE
INDEX 01 00:00:00
log
Exact Audio Copy V0.99 prebeta 4 from 23. January 2008
EAC extraction logfile from 7. April 2009, 10:29
Kate Wolf & The Wildwood Flower / Back Roads
Used drive : DVDRW IDE 16X Adapter: 1 ID: 1
Read mode : Secure
Utilize accurate stream : Yes
Defeat audio cache : Yes
Make use of C2 pointers : No
Read offset correction : 12
Overread into Lead-In and Lead-Out : No
Fill up missing offset samples with silence : Yes
Delete leading and trailing silent blocks : No
Null samples used in CRC calculations : Yes
Used interface : Installed external ASPI interface
Gap handling : Appended to previous track
Used output format : User Defined Encoder
Selected bitrate : 768 kBit/s
Quality : High
Add ID3 tag : No
Command line compressor : F:\eac\Exact Audio Copy\FLAC\FLAC.EXE
Additional command line options : -8 -V -T "ARTIST=%a" -T "TITLE=%t" -T "ALBUM=%g" -T "DATE=%y" -T "TRACKNUMBER=%n" -T "TOTALTRACKS=%x" -T "GENRE=%m" -T "ALBUM ARTIST=%v" -T "ALBUMARTIST=%v" -T "COMMENT=EAC V0.99 prebeta 4, Secure Mode, Test & Copy, Accurat
TOC of the extracted CD
Track | Start | Length | Start sector | End sector
---------------------------------------------------------
1 | 0:00.32 | 4:28.28 | 32 | 20159
2 | 4:28.60 | 3:39.40 | 20160 | 36624
3 | 8:08.25 | 2:32.05 | 36625 | 48029
4 | 10:40.30 | 4:00.40 | 48030 | 66069
5 | 14:40.70 | 4:25.70 | 66070 | 86014
6 | 19:06.65 | 2:50.67 | 86015 | 98831
7 | 21:57.57 | 3:03.63 | 98832 | 112619
8 | 25:01.45 | 3:34.62 | 112620 | 128731
9 | 28:36.32 | 4:57.08 | 128732 | 151014
10 | 33:33.40 | 2:21.35 | 151015 | 161624
11 | 35:55.00 | 5:02.22 | 161625 | 184296
12 | 40:57.22 | 4:02.43 | 184297 | 202489
Track 1
Filename C:\Kate Wolf & The Wildwood Flower - Back Roads (1976) [FLAC]\01 - Lately.wav
Pre-gap length 0:00:02.42
Peak level 67.3 %
Track quality 99.9 %
Test CRC 317DD5F5
Copy CRC 317DD5F5
Track not present in AccurateRip database
Copy OK
Track 2
Filename C:\Kate Wolf & The Wildwood Flower - Back Roads (1976) [FLAC]\02 - Emma Rose.wav
Pre-gap length 0:00:02.16
Peak level 80.9 %
Track quality 100.0 %
Test CRC D6D637A1
Copy CRC D6D637A1
Accurately ripped (confidence 2) [DEE11E61]
Copy OK
Track 3
Filename C:\Kate Wolf & The Wildwood Flower - Back Roads (1976) [FLAC]\03 - Sitting On The Porch.wav
Pre-gap length 0:00:02.00
Peak level 87.6 %
Track quality 99.9 %
Test CRC E80BECBD
Copy CRC E80BECBD
Accurately ripped (confidence 2) [7E680213]
Copy OK
Track 4
Filename C:\Kate Wolf & The Wildwood Flower - Back Roads (1976) [FLAC]\04 - The Redtail Hawk.wav
Pre-gap length 0:00:01.73
Peak level 76.9 %
Track quality 100.0 %
Test CRC 76C31000
Copy CRC 76C31000
Accurately ripped (confidence 2) [EBA83147]
Copy OK
Track 5
Filename C:\Kate Wolf & The Wildwood Flower - Back Roads (1976) [FLAC]\05 - Telluride.wav
Pre-gap length 0:00:02.02
Peak level 84.5 %
Track quality 100.0 %
Test CRC 11E574A6
Copy CRC 11E574A6
Accurately ripped (confidence 2) [335CF012]
Copy OK
Track 6
Filename C:\Kate Wolf & The Wildwood Flower - Back Roads (1976) [FLAC]\06 - Goodbye Babe.wav
Pre-gap length 0:00:02.33
Peak level 70.2 %
Track quality 100.0 %
Test CRC 9CFA0C68
Copy CRC 9CFA0C68
Accurately ripped (confidence 2) [F0597843]
Copy OK
Track 7
Filename C:\Kate Wolf & The Wildwood Flower - Back Roads (1976) [FLAC]\07 - It Ain't In The Wine.wav
Pre-gap length 0:00:01.58
Peak level 100.0 %
Track quality 100.0 %
Test CRC F3983E57
Copy CRC F3983E57
Accurately ripped (confidence 2) [ADD501A3]
Copy OK
Track 8
Filename C:\Kate Wolf & The Wildwood Flower - Back Roads (1976) [FLAC]\08 - Tequila & Me.wav
Pre-gap length 0:00:02.00
Peak level 90.5 %
Track quality 99.9 %
Test CRC ED9E716E
Copy CRC ED9E716E
Accurately ripped (confidence 2) [5BEEE9A3]
Copy OK
Track 9
Filename C:\Kate Wolf & The Wildwood Flower - Back Roads (1976) [FLAC]\09 - Legend In His Time.wav
Pre-gap length 0:00:02.09
Peak level 97.9 %
Track quality 100.0 %
Test CRC 4B123471
Copy CRC 4B123471
Accurately ripped (confidence 2) [124C55CA]
Copy OK
Track 10
Filename C:\Kate Wolf & The Wildwood Flower - Back Roads (1976) [FLAC]\10 - Riding In The Country.wav
Pre-gap length 0:00:02.36
Peak level 99.9 %
Track quality 99.9 %
Test CRC 96F1AC0A
Copy CRC 96F1AC0A
Accurately ripped (confidence 2) [119917A6]
Copy OK
Track 11
Filename C:\Kate Wolf & The Wildwood Flower - Back Roads (1976) [FLAC]\11 - Oklahoma Going Home.wav
Pre-gap length 0:00:02.33
Peak level 99.9 %
Track quality 100.0 %
Test CRC 6E88B31B
Copy CRC 6E88B31B
Accurately ripped (confidence 2) [3BB928D2]
Copy OK
Track 12
Filename C:\Kate Wolf & The Wildwood Flower - Back Roads (1976) [FLAC]\12 - Back Roads.wav
Pre-gap length 0:00:01.96
Peak level 51.4 %
Track quality 100.0 %
Test CRC C230D6F0
Copy CRC C230D6F0
Track not present in AccurateRip database
Copy OK
0 track(s) accurately ripped
2 track(s) not present in the AccurateRip database
Some tracks could not be verified as accurate
No errors occurred
End of status report
Kate Wolf - Lines on the Paper (1977)

Год выпуска диска: 1994 - Rhino Records
Трэклист:
01. I Don't Know Why
02. Lines on the Paper
03. You're Not Standing Like You Used To
04. Picture Puzzle
05. The Heart
06. The Trumpet Vine
07. I Never Knew My Father
08. Amazed to Find
09. Everybody's looking for the Same Thing
10. The Lilac and the Apple
11. Midnight on the Water
12. Lay Me Down Easy
cue
REM DISCID A109D70C
REM COMMENT "ExactAudioCopy v0.99pb4"
PERFORMER "Kate Wolf"
TITLE "Lines on the Paper"
FILE "01 - I Don't Know Why.wav" WAVE
TRACK 01 AUDIO
TITLE "I Don't Know Why"
PERFORMER "Kate Wolf"
PREGAP 00:00:32
INDEX 01 00:00:00
TRACK 02 AUDIO
TITLE "Lines on the Paper"
PERFORMER "Kate Wolf"
INDEX 00 03:42:11
FILE "02 - Lines on the Paper.wav" WAVE
INDEX 01 00:00:00
TRACK 03 AUDIO
TITLE "You're Not Standing Like You Used To"
PERFORMER "Kate Wolf"
INDEX 00 02:31:25
FILE "03 - You're Not Standing Like You Used To.wav" WAVE
INDEX 01 00:00:00
TRACK 04 AUDIO
TITLE "Picture Puzzle"
PERFORMER "Kate Wolf"
INDEX 00 03:44:03
FILE "04 - Picture Puzzle.wav" WAVE
INDEX 01 00:00:00
TRACK 05 AUDIO
TITLE "The Heart"
PERFORMER "Kate Wolf"
INDEX 00 02:58:16
FILE "05 - The Heart.wav" WAVE
INDEX 01 00:00:00
TRACK 06 AUDIO
TITLE "The Trumpet Vine"
PERFORMER "Kate Wolf"
INDEX 00 04:53:43
FILE "06 - The Trumpet Vine.wav" WAVE
INDEX 01 00:00:00
TRACK 07 AUDIO
TITLE "I Never Knew My Father"
PERFORMER "Kate Wolf"
INDEX 00 04:29:66
FILE "07 - I Never Knew My Father.wav" WAVE
INDEX 01 00:00:00
TRACK 08 AUDIO
TITLE "Amazed to Find"
PERFORMER "Kate Wolf"
INDEX 00 03:56:10
FILE "08 - Amazed to Find.wav" WAVE
INDEX 01 00:00:00
TRACK 09 AUDIO
TITLE "Everybody's looking for the Same Thing"
PERFORMER "Kate Wolf"
INDEX 00 02:53:63
FILE "09 - Everybody's looking for the Same Thing.wav" WAVE
INDEX 01 00:00:00
TRACK 10 AUDIO
TITLE "The Lilac and the Apple"
PERFORMER "Kate Wolf"
INDEX 00 02:15:40
FILE "10 - The Lilac and the Apple.wav" WAVE
INDEX 01 00:00:00
TRACK 11 AUDIO
TITLE "Midnight on the Water"
PERFORMER "Kate Wolf"
INDEX 00 02:38:71
FILE "11 - Midnight on the Water.wav" WAVE
INDEX 01 00:00:00
TRACK 12 AUDIO
TITLE "Lay Me Down Easy"
PERFORMER "Kate Wolf"
INDEX 00 04:10:55
FILE "12 - Lay Me Down Easy.wav" WAVE
INDEX 01 00:00:00
log
Exact Audio Copy V0.99 prebeta 4 from 23. January 2008
EAC extraction logfile from 10. April 2009, 12:57
Kate Wolf / Lines on the Paper
Used drive : TEAC CD-W54E Adapter: 3 ID: 0
Read mode : Secure
Utilize accurate stream : Yes
Defeat audio cache : Yes
Make use of C2 pointers : No
Read offset correction : 685
Overread into Lead-In and Lead-Out : No
Fill up missing offset samples with silence : Yes
Delete leading and trailing silent blocks : No
Null samples used in CRC calculations : Yes
Used interface : Installed external ASPI interface
Gap handling : Appended to previous track
Used output format : User Defined Encoder
Selected bitrate : 768 kBit/s
Quality : High
Add ID3 tag : No
Command line compressor : C:\Program Files\Exact Audio Copy\FLAC\FLAC.EXE
Additional command line options : -8 -V -T "ARTIST=%a" -T "TITLE=%t" -T "ALBUM=%g" -T "DATE=%y" -T "TRACKNUMBER=%n" -T "TOTALTRACKS=%x" -T "GENRE=%m" -T "ALBUM ARTIST=%v" -T "ALBUMARTIST=%v" -T "COMMENT=EAC V0.99 prebeta 4, Secure Mode, Test & Copy, Accurat
TOC of the extracted CD
Track | Start | Length | Start sector | End sector
---------------------------------------------------------
1 | 0:00.32 | 3:42.13 | 32 | 16694
2 | 3:42.45 | 2:32.67 | 16695 | 28161
3 | 6:15.37 | 3:44.50 | 28162 | 45011
4 | 10:00.12 | 2:59.55 | 45012 | 58491
5 | 12:59.67 | 4:53.45 | 58492 | 80511
6 | 17:53.37 | 4:30.63 | 80512 | 100824
7 | 22:24.25 | 3:58.05 | 100825 | 118679
8 | 26:22.30 | 2:55.70 | 118680 | 131874
9 | 29:18.25 | 2:17.32 | 131875 | 142181
10 | 31:35.57 | 2:38.73 | 142182 | 154104
11 | 34:14.55 | 4:12.07 | 154105 | 173011
12 | 38:26.62 | 3:32.58 | 173012 | 188969
Track 1
Filename C:\bbb\01 - I Don't Know Why.wav
Pre-gap length 0:00:02.42
Peak level 80.2 %
Track quality 99.9 %
Test CRC 75D5E158
Copy CRC 75D5E158
Accurately ripped (confidence 2) [30108E7A]
Copy OK
Track 2
Filename C:\bbb\02 - Lines on the Paper.wav
Pre-gap length 0:00:00.02
Peak level 96.0 %
Track quality 100.0 %
Test CRC 35CDE748
Copy CRC 35CDE748
Accurately ripped (confidence 2) [D0877808]
Copy OK
Track 3
Filename C:\bbb\03 - You're Not Standing Like You Used To.wav
Pre-gap length 0:00:01.56
Peak level 99.9 %
Track quality 100.0 %
Test CRC A0395A3E
Copy CRC A0395A3E
Accurately ripped (confidence 2) [FA2513A2]
Copy OK
Track 4
Filename C:\bbb\04 - Picture Puzzle.wav
Pre-gap length 0:00:00.62
Peak level 100.0 %
Track quality 100.0 %
Test CRC 570A4CFE
Copy CRC 570A4CFE
Accurately ripped (confidence 2) [F6CF5523]
Copy OK
Track 5
Filename C:\bbb\05 - The Heart.wav
Pre-gap length 0:00:01.52
Peak level 100.0 %
Track quality 100.0 %
Test CRC BD895E2E
Copy CRC BD895E2E
Accurately ripped (confidence 2) [02239479]
Copy OK
Track 6
Filename C:\bbb\06 - The Trumpet Vine.wav
Pre-gap length 0:00:00.02
Peak level 85.9 %
Track quality 100.0 %
Test CRC 0EE9805F
Copy CRC 0EE9805F
Accurately ripped (confidence 2) [A476646B]
Copy OK
Track 7
Filename C:\bbb\07 - I Never Knew My Father.wav
Pre-gap length 0:00:00.96
Peak level 86.7 %
Track quality 99.9 %
Test CRC 2F3AF01C
Copy CRC 2F3AF01C
Track not present in AccurateRip database
Copy OK
Track 8
Filename C:\bbb\08 - Amazed to Find.wav
Pre-gap length 0:00:01.93
Peak level 96.1 %
Track quality 100.0 %
Test CRC EC157944
Copy CRC EC157944
Accurately ripped (confidence 2) [22BFACEB]
Copy OK
Track 9
Filename C:\bbb\09 - Everybody's looking for the Same Thing.wav
Pre-gap length 0:00:02.09
Peak level 99.9 %
Track quality 100.0 %
Test CRC 1CD241AC
Copy CRC 1CD241AC
Accurately ripped (confidence 2) [28257081]
Copy OK
Track 10
Filename C:\bbb\10 - The Lilac and the Apple.wav
Pre-gap length 0:00:01.89
Peak level 63.2 %
Track quality 100.0 %
Test CRC 280E49C1
Copy CRC 280E49C1
Accurately ripped (confidence 2) [9A04A9BB]
Copy OK
Track 11
Filename C:\bbb\11 - Midnight on the Water.wav
Pre-gap length 0:00:00.02
Peak level 99.5 %
Track quality 100.0 %
Test CRC E68C3AB0
Copy CRC E68C3AB0
Accurately ripped (confidence 2) [1B493973]
Copy OK
Track 12
Filename C:\bbb\12 - Lay Me Down Easy.wav
Pre-gap length 0:00:01.36
Peak level 88.9 %
Track quality 100.0 %
Test CRC 3194A06F
Copy CRC 3194A06F
Accurately ripped (confidence 2) [6EB777A5]
Copy OK
11 track(s) accurately ripped
1 track(s) not present in the AccurateRip database
Some tracks could not be verified as accurate
No errors occurred
End of status report
Kate Wolf - Safe At Anchor (1979)

Год выпуска диска: 1994 - Rhino Records
Трэклист:
1. Safe At Anchor
2. Early Morning Melody
3. Sweet Love
4. She Rises Like The Dolphin
5. Great Love Of My Life
6. Shining
7. September Song
8. Seashore Mountain Lady
9. Looking Back At You
10. Two-Way Waltz
cue
EM GENRE Folk
REM DATE 1979
REM DISCID 85095D0A
REM COMMENT "ExactAudioCopy v0.99pb4"
PERFORMER "Kate Wolf"
TITLE "Safe At Anchor"
FILE "01 - Safe At Anchor.wav" WAVE
TRACK 01 AUDIO
TITLE "Safe At Anchor"
PERFORMER "Kate Wolf"
PREGAP 00:00:32
INDEX 01 00:00:00
TRACK 02 AUDIO
TITLE "Early Morning Melody"
PERFORMER "Kate Wolf"
INDEX 00 03:54:53
FILE "02 - Early Morning Melody.wav" WAVE
INDEX 01 00:00:00
TRACK 03 AUDIO
TITLE "Sweet Love"
PERFORMER "Kate Wolf"
INDEX 00 02:42:70
FILE "03 - Sweet Love.wav" WAVE
INDEX 01 00:00:00
TRACK 04 AUDIO
TITLE "She Rises Like The Dolphin"
PERFORMER "Kate Wolf"
INDEX 00 03:31:13
FILE "04 - She Rises Like The Dolphin.wav" WAVE
INDEX 01 00:00:00
TRACK 05 AUDIO
TITLE "Great Love Of My Life"
PERFORMER "Kate Wolf"
INDEX 00 03:57:53
FILE "05 - Great Love Of My Life.wav" WAVE
INDEX 01 00:00:00
TRACK 06 AUDIO
TITLE "Shining"
PERFORMER "Kate Wolf"
INDEX 00 06:22:55
FILE "06 - Shining.wav" WAVE
INDEX 01 00:00:00
TRACK 07 AUDIO
TITLE "September Song"
PERFORMER "Kate Wolf"
INDEX 00 03:17:10
FILE "07 - September Song.wav" WAVE
INDEX 01 00:00:00
TRACK 08 AUDIO
TITLE "Seashore Mountain Lady"
PERFORMER "Kate Wolf"
INDEX 00 04:01:65
FILE "08 - Seashore Mountain Lady.wav" WAVE
INDEX 01 00:00:00
TRACK 09 AUDIO
TITLE "Looking Back At You"
PERFORMER "Kate Wolf"
INDEX 00 03:53:10
FILE "09 - Looking Back At You.wav" WAVE
INDEX 01 00:00:00
TRACK 10 AUDIO
TITLE "Two-Way Waltz"
PERFORMER "Kate Wolf"
INDEX 00 02:56:18
FILE "10 - Two-Way Waltz.wav" WAVE
INDEX 01 00:00:00
log
Exact Audio Copy V0.99 prebeta 4 from 23. January 2008
EAC extraction logfile from 20. February 2010, 14:10
Kate Wolf / Safe At Anchor
Used drive : HL-DT-STDVD-RAM GSA-H54N Adapter: 3 ID: 0
Read mode : Secure
Utilize accurate stream : Yes
Defeat audio cache : Yes
Make use of C2 pointers : No
Read offset correction : 102
Overread into Lead-In and Lead-Out : No
Fill up missing offset samples with silence : Yes
Delete leading and trailing silent blocks : No
Null samples used in CRC calculations : Yes
Used interface : Native Win32 interface for Win NT & 2000
Gap handling : Appended to previous track
Used output format : User Defined Encoder
Selected bitrate : 768 kBit/s
Quality : High
Add ID3 tag : No
Command line compressor : C:\Program Files\Exact Audio Copy\Mareo\mareo.exe
Additional command line options : mareo.ini %s %d "%a" "%g" "%t" "%n" %y "%m"
TOC of the extracted CD
Track | Start | Length | Start sector | End sector
---------------------------------------------------------
1 | 0:00.32 | 3:56.53 | 32 | 17784
2 | 3:57.10 | 2:46.72 | 17785 | 30306
3 | 6:44.07 | 3:33.50 | 30307 | 46331
4 | 10:17.57 | 4:00.40 | 46332 | 64371
5 | 14:18.22 | 6:26.08 | 64372 | 93329
6 | 20:44.30 | 3:19.17 | 93330 | 108271
7 | 24:03.47 | 4:07.23 | 108272 | 126819
8 | 28:10.70 | 3:55.72 | 126820 | 144516
9 | 32:06.67 | 3:00.55 | 144517 | 158071
10 | 35:07.47 | 4:50.05 | 158072 | 179826
Track 1
Filename J:\Ripped\01 - Safe At Anchor.wav
Pre-gap length 0:00:02.42
Peak level 88.7 %
Track quality 100.0 %
Test CRC 270B0392
Copy CRC 270B0392
Accurately ripped (confidence 2) [311138F2]
Copy OK
Track 2
Filename J:\Ripped\02 - Early Morning Melody.wav
Pre-gap length 0:00:02.00
Peak level 82.6 %
Track quality 100.0 %
Test CRC 0557EC3A
Copy CRC 0557EC3A
Accurately ripped (confidence 2) [C82439D6]
Copy OK
Track 3
Filename J:\Ripped\03 - Sweet Love.wav
Pre-gap length 0:00:04.02
Peak level 76.7 %
Track quality 100.0 %
Test CRC F0870FFA
Copy CRC F0870FFA
Accurately ripped (confidence 2) [703B10EA]
Copy OK
Track 4
Filename J:\Ripped\04 - She Rises Like The Dolphin.wav
Pre-gap length 0:00:02.49
Peak level 78.3 %
Track quality 100.0 %
Test CRC 6B60FF75
Copy CRC 6B60FF75
Accurately ripped (confidence 2) [640CE4AE]
Copy OK
Track 5
Filename J:\Ripped\05 - Great Love Of My Life.wav
Pre-gap length 0:00:02.82
Peak level 70.4 %
Track quality 100.0 %
Test CRC 8529C777
Copy CRC 8529C777
Accurately ripped (confidence 2) [BCD6816E]
Copy OK
Track 6
Filename J:\Ripped\06 - Shining.wav
Pre-gap length 0:00:03.37
Peak level 76.4 %
Track quality 99.9 %
Test CRC F1C3E65D
Copy CRC F1C3E65D
Accurately ripped (confidence 2) [62C12DB3]
Copy OK
Track 7
Filename J:\Ripped\07 - September Song.wav
Pre-gap length 0:00:02.09
Peak level 67.7 %
Track quality 100.0 %
Test CRC D7A4684F
Copy CRC D7A4684F
Accurately ripped (confidence 2) [D5375BD4]
Copy OK
Track 8
Filename J:\Ripped\08 - Seashore Mountain Lady.wav
Pre-gap length 0:00:05.44
Peak level 85.5 %
Track quality 100.0 %
Test CRC 12FD1842
Copy CRC 12FD1842
Accurately ripped (confidence 2) [E65B581E]
Copy OK
Track 9
Filename J:\Ripped\09 - Looking Back At You.wav
Pre-gap length 0:00:02.82
Peak level 69.6 %
Track quality 100.0 %
Test CRC 400F572D
Copy CRC 400F572D
Accurately ripped (confidence 2) [B1D7CE47]
Copy OK
Track 10
Filename J:\Ripped\10 - Two-Way Waltz.wav
Pre-gap length 0:00:04.49
Peak level 86.7 %
Track quality 100.0 %
Test CRC 3E76351D
Copy CRC 3E76351D
Accurately ripped (confidence 2) [32ADB4DB]
Copy OK
All tracks accurately ripped
No errors occurred
End of status report
Kate Wolf - Poet's Heart (1985)

Год выпуска диска: 2008 - Collectables Records
Трэклист:
1. Poet's Heart
2. Carolina Pines
3. Muddy Roads
4. All He Ever Saw Was You
5. Brother Warrior
6. Crying Shame
7. Slender Thread
8. In China or a Woman's Heart (There are Places No One Knows)
9. See Here, She Said
cue
REM GENRE Folk
REM DATE 1985
REM DISCID 6F09D009
REM COMMENT "ExactAudioCopy v0.99pb4"
PERFORMER "Kate Wolf"
TITLE "Poet's Heart"
FILE "01 - Poet's Heart.wav" WAVE
TRACK 01 AUDIO
TITLE "Poet's Heart"
PERFORMER "Kate Wolf"
INDEX 01 00:00:00
TRACK 02 AUDIO
TITLE "Carolina Pines"
PERFORMER "Kate Wolf"
INDEX 00 04:43:37
FILE "02 - Carolina Pines.wav" WAVE
INDEX 01 00:00:00
TRACK 03 AUDIO
TITLE "Muddy Roads"
PERFORMER "Kate Wolf"
INDEX 00 05:43:62
FILE "03 - Muddy Roads.wav" WAVE
INDEX 01 00:00:00
TRACK 04 AUDIO
TITLE "All He Ever Saw Was You"
PERFORMER "Kate Wolf"
INDEX 00 03:51:55
FILE "04 - All He Ever Saw Was You.wav" WAVE
INDEX 01 00:00:00
TRACK 05 AUDIO
TITLE "Brother Warrior"
PERFORMER "Kate Wolf"
INDEX 00 04:05:45
FILE "05 - Brother Warrior.wav" WAVE
INDEX 01 00:00:00
TRACK 06 AUDIO
TITLE "Crying Shame"
PERFORMER "Kate Wolf"
INDEX 00 03:41:23
FILE "06 - Crying Shame.wav" WAVE
INDEX 01 00:00:00
TRACK 07 AUDIO
TITLE "Slender Thread"
PERFORMER "Kate Wolf"
INDEX 00 03:38:55
FILE "07 - Slender Thread.wav" WAVE
INDEX 01 00:00:00
TRACK 08 AUDIO
TITLE "In China or a Woman's Heart (There are Places No One Knows)"
PERFORMER "Kate Wolf"
INDEX 00 07:08:13
FILE "08 - In China or a Woman's Heart (There are Places No One Knows).wav" WAVE
INDEX 01 00:00:00
TRACK 09 AUDIO
TITLE "See Here, She Said"
PERFORMER "Kate Wolf"
INDEX 00 04:25:55
FILE "09 - See Here, She Said.wav" WAVE
INDEX 01 00:00:00
log
Exact Audio Copy V0.99 prebeta 4 from 23. January 2008
EAC extraction logfile from 19. February 2010, 18:48
Kate Wolf / Poet's Heart
Used drive : HL-DT-STDVD-RAM GSA-H54N Adapter: 3 ID: 0
Read mode : Secure
Utilize accurate stream : Yes
Defeat audio cache : Yes
Make use of C2 pointers : No
Read offset correction : 102
Overread into Lead-In and Lead-Out : No
Fill up missing offset samples with silence : Yes
Delete leading and trailing silent blocks : No
Null samples used in CRC calculations : Yes
Used interface : Native Win32 interface for Win NT & 2000
Gap handling : Appended to previous track
Used output format : User Defined Encoder
Selected bitrate : 768 kBit/s
Quality : High
Add ID3 tag : No
Command line compressor : C:\Program Files\Exact Audio Copy\Mareo\mareo.exe
Additional command line options : mareo.ini %s %d "%a" "%g" "%t" "%n" %y "%m"
TOC of the extracted CD
Track | Start | Length | Start sector | End sector
---------------------------------------------------------
1 | 0:00.00 | 4:46.00 | 0 | 21449
2 | 4:46.00 | 5:46.45 | 21450 | 47444
3 | 10:32.45 | 3:54.62 | 47445 | 65056
4 | 14:27.32 | 4:09.40 | 65057 | 83771
5 | 18:36.72 | 3:45.03 | 83772 | 100649
6 | 22:22.00 | 3:43.32 | 100650 | 117406
7 | 26:05.32 | 7:12.70 | 117407 | 149876
8 | 33:18.27 | 4:29.50 | 149877 | 170101
9 | 37:48.02 | 4:04.48 | 170102 | 188449
Track 1
Filename J:\Ripped\01 - Poet's Heart.wav
Pre-gap length 0:00:02.00
Peak level 69.0 %
Track quality 99.9 %
Test CRC 33FA1AAC
Copy CRC 33FA1AAC
Cannot be verified as accurate (confidence 1) [D1D7D758], AccurateRip returned [0B949D6B]
Copy OK
Track 2
Filename J:\Ripped\02 - Carolina Pines.wav
Pre-gap length 0:00:02.50
Peak level 63.9 %
Track quality 100.0 %
Test CRC F1B30EFA
Copy CRC F1B30EFA
Cannot be verified as accurate (confidence 1) [A8CF878E], AccurateRip returned [7F52DFF8]
Copy OK
Track 3
Filename J:\Ripped\03 - Muddy Roads.wav
Pre-gap length 0:00:02.77
Peak level 76.8 %
Track quality 100.0 %
Test CRC 9EEF602F
Copy CRC 9EEF602F
Cannot be verified as accurate (confidence 1) [D710FC60], AccurateRip returned [CA322D6E]
Copy OK
Track 4
Filename J:\Ripped\04 - All He Ever Saw Was You.wav
Pre-gap length 0:00:03.09
Peak level 73.5 %
Track quality 100.0 %
Test CRC C221CFEB
Copy CRC C221CFEB
Cannot be verified as accurate (confidence 1) [D54FD155], AccurateRip returned [0FE5E31C]
Copy OK
Track 5
Filename J:\Ripped\05 - Brother Warrior.wav
Pre-gap length 0:00:03.93
Peak level 79.7 %
Track quality 100.0 %
Test CRC 38BEB3E3
Copy CRC 38BEB3E3
Cannot be verified as accurate (confidence 1) [15F2C435], AccurateRip returned [F03FF747]
Copy OK
Track 6
Filename J:\Ripped\06 - Crying Shame.wav
Pre-gap length 0:00:03.73
Peak level 72.2 %
Track quality 100.0 %
Test CRC CCDFA82A
Copy CRC CCDFA82A
Cannot be verified as accurate (confidence 1) [61E94163], AccurateRip returned [CB286F69]
Copy OK
Track 7
Filename J:\Ripped\07 - Slender Thread.wav
Pre-gap length 0:00:04.69
Peak level 61.7 %
Track quality 100.0 %
Test CRC 8926BA61
Copy CRC 8926BA61
Cannot be verified as accurate (confidence 1) [777FD338], AccurateRip returned [13606309]
Copy OK
Track 8
Filename J:\Ripped\08 - In China or a Woman's Heart (There are Places No One Knows).wav
Pre-gap length 0:00:04.76
Peak level 63.9 %
Track quality 100.0 %
Test CRC 4E8989A7
Copy CRC 4E8989A7
Cannot be verified as accurate (confidence 1) [CFD2F01B], AccurateRip returned [45CD1BDA]
Copy OK
Track 9
Filename J:\Ripped\09 - See Here, She Said.wav
Pre-gap length 0:00:03.93
Peak level 48.9 %
Track quality 100.0 %
Test CRC C97330A3
Copy CRC C97330A3
Cannot be verified as accurate (confidence 1) [5A968734], AccurateRip returned [A0860560]
Copy OK
No tracks could be verified as accurate
You may have a different pressing from the one(s) in the database
No errors occurred
End of status report
Weaver Of Visions - The Kate Wolf Anthology (2 CD) [2000]

Год выпуска диска: 2000 - Rhino Records
Трэклист:
CD 1:
01. Although I've Gone Away
02. Green Eyes (Live)
03. Emma Rose
04. Like A River (Live)
05. Old Jerome
06. These Times We're Living In (Live)
07. Sweet Love
08. Accross The Great Divide
09. Brother Warrior
10. Unfinished Life
11. Eyes Of A Painter (Live)
12. Safe At Anchor
13. Give Yourself To Love (Live)
14. The Trumpet Vine
15. Slender Thread
16. Muddy Roads
17. Early Morning Melody
18. Telluride
СD 2:
01. Here in California
02. Looking Back at You (Live)
03. The Minstrel
04. Picture Puzzle (Live)
05. Cornflower Blue (Live)
06. The Wind Blows Wild
07. You're Not Standing Like You Used To
08. Carolina Pines
09. Medicine Wheel
10. Two-Way Waltz
11. The Lilac & The Apple
12. Shadow of a Life
13. She Rises Like the Dolphin
14. Poet's Heart
15. Friend of Mine (Live)
16. Pacheco/The Redtail Hawk (Live)
17. Back Roads
cue
REM GENRE Folk
REM DATE 2000
REM DISCID 02125812
REM COMMENT "ExactAudioCopy v0.99pb4"
CATALOG 0081227559625
PERFORMER "Kate Wolf"
TITLE "Weaver Of Visions: The Kate Wolf Anthology CD 1"
FILE "01 Although I've Gone Away.wav" WAVE
TRACK 01 AUDIO
TITLE "Although I've Gone Away"
PERFORMER "Kate Wolf"
PREGAP 00:00:32
INDEX 01 00:00:00
TRACK 02 AUDIO
TITLE "Green Eyes (Live)"
PERFORMER "Kate Wolf"
INDEX 00 03:39:50
FILE "02 Green Eyes (Live).wav" WAVE
INDEX 01 00:00:00
TRACK 03 AUDIO
TITLE "Emma Rose"
PERFORMER "Kate Wolf"
INDEX 00 04:50:37
FILE "03 Emma Rose.wav" WAVE
INDEX 01 00:00:00
TRACK 04 AUDIO
TITLE "Like A River (Live)"
PERFORMER "Kate Wolf"
INDEX 00 03:39:28
FILE "04 Like A River (Live).wav" WAVE
INDEX 01 00:00:00
TRACK 05 AUDIO
TITLE "Old Jerome"
PERFORMER "Kate Wolf"
INDEX 00 03:42:07
FILE "05 Old Jerome.wav" WAVE
INDEX 01 00:00:00
TRACK 06 AUDIO
TITLE "These Times We're Living In (Live)"
PERFORMER "Kate Wolf"
INDEX 00 04:02:50
FILE "06 These Times We're Living In (Live).wav" WAVE
INDEX 01 00:00:00
TRACK 07 AUDIO
TITLE "Sweet Love"
PERFORMER "Kate Wolf"
INDEX 00 05:39:05
FILE "07 Sweet Love.wav" WAVE
INDEX 01 00:00:00
TRACK 08 AUDIO
TITLE "Accross The Great Divide"
PERFORMER "Kate Wolf"
INDEX 00 03:32:32
FILE "08 Accross The Great Divide.wav" WAVE
INDEX 01 00:00:00
TRACK 09 AUDIO
TITLE "Brother Warrior"
PERFORMER "Kate Wolf"
INDEX 00 04:12:13
FILE "09 Brother Warrior.wav" WAVE
INDEX 01 00:00:00
TRACK 10 AUDIO
TITLE "Unfinished Life"
PERFORMER "Kate Wolf"
INDEX 00 03:43:00
FILE "10 Unfinished Life.wav" WAVE
INDEX 01 00:00:00
TRACK 11 AUDIO
TITLE "Eyes Of A Painter (Live)"
PERFORMER "Kate Wolf"
INDEX 00 05:06:30
FILE "11 Eyes Of A Painter (Live).wav" WAVE
INDEX 01 00:00:00
TRACK 12 AUDIO
TITLE "Safe At Anchor"
PERFORMER "Kate Wolf"
INDEX 00 03:57:65
FILE "12 Safe At Anchor.wav" WAVE
INDEX 01 00:00:00
TRACK 13 AUDIO
TITLE "Give Yourself To Love (Live)"
PERFORMER "Kate Wolf"
INDEX 00 03:55:05
FILE "13 Give Yourself To Love (Live).wav" WAVE
INDEX 01 00:00:00
TRACK 14 AUDIO
TITLE "The Trumpet Vine"
PERFORMER "Kate Wolf"
INDEX 00 03:55:03
FILE "14 The Trumpet Vine.wav" WAVE
INDEX 01 00:00:00
TRACK 15 AUDIO
TITLE "Slender Thread"
PERFORMER "Kate Wolf"
INDEX 00 04:30:05
FILE "15 Slender Thread.wav" WAVE
INDEX 01 00:00:00
TRACK 16 AUDIO
TITLE "Muddy Roads"
PERFORMER "Kate Wolf"
INDEX 00 07:10:60
FILE "16 Muddy Roads.wav" WAVE
INDEX 01 00:00:00
TRACK 17 AUDIO
TITLE "Early Morning Melody"
PERFORMER "Kate Wolf"
INDEX 00 04:58:63
FILE "17 Early Morning Melody.wav" WAVE
INDEX 01 00:00:00
TRACK 18 AUDIO
TITLE "Telluride"
PERFORMER "Kate Wolf"
INDEX 00 02:43:50
FILE "18 Telluride.wav" WAVE
INDEX 01 00:00:00
_____________________________________________________
REM GENRE Folk
REM DATE 2000
REM DISCID F111DF11
REM COMMENT "ExactAudioCopy v0.99pb4"
CATALOG 0081227559625
PERFORMER "Kate Wolf"
TITLE "Weaver Of Visions: The Kate Wolf Anthology CD 2"
FILE "01 Here in California.wav" WAVE
TRACK 01 AUDIO
TITLE "Here in California"
PERFORMER "Kate Wolf"
PREGAP 00:00:32
INDEX 01 00:00:00
TRACK 02 AUDIO
TITLE "Looking Back at You (Live)"
PERFORMER "Kate Wolf"
INDEX 00 05:30:03
FILE "02 Looking Back at You (Live).wav" WAVE
INDEX 01 00:00:00
TRACK 03 AUDIO
TITLE "The Minstrel"
PERFORMER "Kate Wolf"
INDEX 00 02:58:55
FILE "03 The Minstrel.wav" WAVE
INDEX 01 00:00:00
TRACK 04 AUDIO
TITLE "Picture Puzzle (Live)"
PERFORMER "Kate Wolf"
INDEX 00 04:02:62
FILE "04 Picture Puzzle (Live).wav" WAVE
INDEX 01 00:00:00
TRACK 05 AUDIO
TITLE "Cornflower Blue (Live)"
PERFORMER "Kate Wolf"
INDEX 00 03:01:00
FILE "05 Cornflower Blue (Live).wav" WAVE
INDEX 01 00:00:00
TRACK 06 AUDIO
TITLE "The Wind Blows Wild"
PERFORMER "Kate Wolf"
INDEX 00 04:27:55
FILE "06 The Wind Blows Wild.wav" WAVE
INDEX 01 00:00:00
TRACK 07 AUDIO
TITLE "You're Not Standing Like You Used To"
PERFORMER "Kate Wolf"
INDEX 00 05:44:58
FILE "07 You're Not Standing Like You Used To.wav" WAVE
INDEX 01 00:00:00
TRACK 08 AUDIO
TITLE "Carolina Pines"
PERFORMER "Kate Wolf"
INDEX 00 03:42:50
FILE "08 Carolina Pines.wav" WAVE
INDEX 01 00:00:00
TRACK 09 AUDIO
TITLE "Medicine Wheel"
PERFORMER "Kate Wolf"
INDEX 00 05:45:03
FILE "09 Medicine Wheel.wav" WAVE
INDEX 01 00:00:00
TRACK 10 AUDIO
TITLE "Two-Way Waltz"
PERFORMER "Kate Wolf"
INDEX 00 03:49:55
FILE "10 Two-Way Waltz.wav" WAVE
INDEX 01 00:00:00
TRACK 11 AUDIO
TITLE "The Lilac & The Apple"
PERFORMER "Kate Wolf"
INDEX 00 04:50:20
FILE "11 The Lilac & The Apple.wav" WAVE
INDEX 01 00:00:00
TRACK 12 AUDIO
TITLE "Shadow of a Life"
PERFORMER "Kate Wolf"
INDEX 00 02:38:25
FILE "12 Shadow of a Life.wav" WAVE
INDEX 01 00:00:00
TRACK 13 AUDIO
TITLE "She Rises Like the Dolphin"
PERFORMER "Kate Wolf"
INDEX 00 04:47:42
FILE "13 She Rises Like the Dolphin.wav" WAVE
INDEX 01 00:00:00
TRACK 14 AUDIO
TITLE "Poet's Heart"
PERFORMER "Kate Wolf"
INDEX 00 03:58:17
FILE "14 Poet's Heart.wav" WAVE
INDEX 01 00:00:00
TRACK 15 AUDIO
TITLE "Friend of Mine (Live)"
PERFORMER "Kate Wolf"
INDEX 00 04:45:25
FILE "15 Friend of Mine (Live).wav" WAVE
INDEX 01 00:00:00
TRACK 16 AUDIO
TITLE "Pacheco/The Redtail Hawk (Live)"
PERFORMER "Kate Wolf"
INDEX 00 04:05:37
FILE "16 Pacheco,The Redtail Hawk (Live).wav" WAVE
INDEX 01 00:00:00
TRACK 17 AUDIO
TITLE "Back Roads"
PERFORMER "Kate Wolf"
INDEX 00 07:37:45
FILE "17 Back Roads.wav" WAVE
INDEX 01 00:00:00
log
Exact Audio Copy V0.99 prebeta 4 from 23. January 2008
EAC extraction logfile from 29. December 2008, 12:29
Kate Wolf / Weaver Of Visions: The Kate Wolf Anthology CD 1
Used drive : TSSTcorpCDDVDW SH-S203B Adapter: 5 ID: 1
Read mode : Secure
Utilize accurate stream : Yes
Defeat audio cache : Yes
Make use of C2 pointers : No
Read offset correction : 6
Overread into Lead-In and Lead-Out : No
Fill up missing offset samples with silence : Yes
Delete leading and trailing silent blocks : No
Null samples used in CRC calculations : Yes
Used interface : Native Win32 interface for Win NT & 2000
Gap handling : Appended to previous track
Used output format : User Defined Encoder
Selected bitrate : 128 kBit/s
Quality : High
Add ID3 tag : No
Command line compressor : C:\Program Files\Exact Audio Copy\Flac\flac.exe
Additional command line options : -V -8 -T "artist=%a" -T "title=%t" -T "album=%g" -T "date=%y" -T "tracknumber=%n" -T "genre=%m" %s
TOC of the extracted CD
Track | Start | Length | Start sector | End sector
---------------------------------------------------------
1 | 0:00.32 | 3:41.58 | 32 | 16664
2 | 3:42.15 | 4:52.57 | 16665 | 38621
3 | 8:34.72 | 3:41.48 | 38622 | 55244
4 | 12:16.45 | 3:44.22 | 55245 | 72066
5 | 16:00.67 | 4:04.58 | 72067 | 90424
6 | 20:05.50 | 5:39.60 | 90425 | 115909
7 | 25:45.35 | 3:33.07 | 115910 | 131891
8 | 29:18.42 | 4:14.10 | 131892 | 150951
9 | 33:32.52 | 3:44.18 | 150952 | 167769
10 | 37:16.70 | 5:08.15 | 167770 | 190884
11 | 42:25.10 | 3:59.72 | 190885 | 208881
12 | 46:25.07 | 3:58.30 | 208882 | 226761
13 | 50:23.37 | 3:57.43 | 226762 | 244579
14 | 54:21.05 | 4:31.15 | 244580 | 264919
15 | 58:52.20 | 7:11.57 | 264920 | 297301
16 | 66:04.02 | 5:00.63 | 297302 | 319864
17 | 71:04.65 | 2:46.42 | 319865 | 332356
18 | 73:51.32 | 4:24.63 | 332357 | 352219
Track 1
Filename Y:\EACrips\Kate Wolf - Weaver Of Visions- The Kate Wolf Anthology CD 1 [2000]\01 Although I've Gone Away.wav
Pre-gap length 0:00:02.32
Peak level 86.4 %
Track quality 100.0 %
Test CRC 7EB9D99F
Copy CRC 7EB9D99F
Accurately ripped (confidence 8) [B3E2ADF5]
Copy OK
Track 2
Filename Y:\EACrips\Kate Wolf - Weaver Of Visions- The Kate Wolf Anthology CD 1 [2000]\02 Green Eyes (Live).wav
Pre-gap length 0:00:02.08
Peak level 97.2 %
Track quality 100.0 %
Test CRC 9B17F288
Copy CRC 9B17F288
Accurately ripped (confidence 8) [F4DD4B7D]
Copy OK
Track 3
Filename Y:\EACrips\Kate Wolf - Weaver Of Visions- The Kate Wolf Anthology CD 1 [2000]\03 Emma Rose.wav
Pre-gap length 0:00:02.20
Peak level 100.0 %
Track quality 100.0 %
Test CRC 80FDADEB
Copy CRC 80FDADEB
Accurately ripped (confidence 8) [7764FB8A]
Copy OK
Track 4
Filename Y:\EACrips\Kate Wolf - Weaver Of Visions- The Kate Wolf Anthology CD 1 [2000]\04 Like A River (Live).wav
Pre-gap length 0:00:02.20
Peak level 86.6 %
Track quality 100.0 %
Test CRC 532D2704
Copy CRC 532D2704
Accurately ripped (confidence 8) [11FF2ECC]
Copy OK
Track 5
Filename Y:\EACrips\Kate Wolf - Weaver Of Visions- The Kate Wolf Anthology CD 1 [2000]\05 Old Jerome.wav
Pre-gap length 0:00:02.15
Peak level 80.3 %
Track quality 100.0 %
Test CRC 18729798
Copy CRC 18729798
Accurately ripped (confidence 7) [786D4218]
Copy OK
Track 6
Filename Y:\EACrips\Kate Wolf - Weaver Of Visions- The Kate Wolf Anthology CD 1 [2000]\06 These Times We're Living In (Live).wav
Pre-gap length 0:00:02.08
Peak level 85.5 %
Track quality 100.0 %
Test CRC CA52779B
Copy CRC CA52779B
Accurately ripped (confidence 8) [A4CB3D63]
Copy OK
Track 7
Filename Y:\EACrips\Kate Wolf - Weaver Of Visions- The Kate Wolf Anthology CD 1 [2000]\07 Sweet Love.wav
Pre-gap length 0:00:00.55
Peak level 87.0 %
Track quality 100.0 %
Test CRC 9CFC7BFB
Copy CRC 9CFC7BFB
Accurately ripped (confidence 8) [B3E6768B]
Copy OK
Track 8
Filename Y:\EACrips\Kate Wolf - Weaver Of Visions- The Kate Wolf Anthology CD 1 [2000]\08 Accross The Great Divide.wav
Pre-gap length 0:00:00.50
Peak level 64.5 %
Track quality 100.0 %
Test CRC 4CDA643D
Copy CRC 4CDA643D
Accurately ripped (confidence 8) [6D75519E]
Copy OK
Track 9
Filename Y:\EACrips\Kate Wolf - Weaver Of Visions- The Kate Wolf Anthology CD 1 [2000]\09 Brother Warrior.wav
Pre-gap length 0:00:01.72
Peak level 97.2 %
Track quality 100.0 %
Test CRC 28203D8B
Copy CRC 28203D8B
Accurately ripped (confidence 8) [1A977725]
Copy OK
Track 10
Filename Y:\EACrips\Kate Wolf - Weaver Of Visions- The Kate Wolf Anthology CD 1 [2000]\10 Unfinished Life.wav
Pre-gap length 0:00:01.18
Peak level 74.5 %
Track quality 100.0 %
Test CRC B2E287EF
Copy CRC B2E287EF
Accurately ripped (confidence 8) [5C0B64D0]
Copy OK
Track 11
Filename Y:\EACrips\Kate Wolf - Weaver Of Visions- The Kate Wolf Anthology CD 1 [2000]\11 Eyes Of A Painter (Live).wav
Pre-gap length 0:00:01.60
Peak level 97.2 %
Track quality 100.0 %
Test CRC 42BF1D8F
Copy CRC 42BF1D8F
Accurately ripped (confidence 8) [71190830]
Copy OK
Track 12
Filename Y:\EACrips\Kate Wolf - Weaver Of Visions- The Kate Wolf Anthology CD 1 [2000]\12 Safe At Anchor.wav
Pre-gap length 0:00:02.07
Peak level 97.2 %
Track quality 99.9 %
Test CRC A508D8E4
Copy CRC A508D8E4
Accurately ripped (confidence 8) [6F313626]
Copy OK
Track 13
Filename Y:\EACrips\Kate Wolf - Weaver Of Visions- The Kate Wolf Anthology CD 1 [2000]\13 Give Yourself To Love (Live).wav
Pre-gap length 0:00:03.25
Peak level 91.9 %
Track quality 100.0 %
Test CRC E6DC8F08
Copy CRC E6DC8F08
Accurately ripped (confidence 8) [0EA07EAF]
Copy OK
Track 14
Filename Y:\EACrips\Kate Wolf - Weaver Of Visions- The Kate Wolf Anthology CD 1 [2000]\14 The Trumpet Vine.wav
Pre-gap length 0:00:02.40
Peak level 68.4 %
Track quality 100.0 %
Test CRC 9F7421DF
Copy CRC 9F7421DF
Accurately ripped (confidence 8) [9920E613]
Copy OK
Track 15
Filename Y:\EACrips\Kate Wolf - Weaver Of Visions- The Kate Wolf Anthology CD 1 [2000]\15 Slender Thread.wav
Pre-gap length 0:00:01.10
Peak level 88.6 %
Track quality 100.0 %
Test CRC F51AC983
Copy CRC F51AC983
Accurately ripped (confidence 8) [BBE33242]
Copy OK
Track 16
Filename Y:\EACrips\Kate Wolf - Weaver Of Visions- The Kate Wolf Anthology CD 1 [2000]\16 Muddy Roads.wav
Pre-gap length 0:00:00.72
Peak level 100.0 %
Track quality 99.9 %
Test CRC B0352DC4
Copy CRC B0352DC4
Accurately ripped (confidence 8) [162C9981]
Copy OK
Track 17
Filename Y:\EACrips\Kate Wolf - Weaver Of Visions- The Kate Wolf Anthology CD 1 [2000]\17 Early Morning Melody.wav
Pre-gap length 0:00:02.00
Peak level 88.9 %
Track quality 100.0 %
Test CRC 8A002A50
Copy CRC 8A002A50
Accurately ripped (confidence 7) [21AF6786]
Copy OK
Track 18
Filename Y:\EACrips\Kate Wolf - Weaver Of Visions- The Kate Wolf Anthology CD 1 [2000]\18 Telluride.wav
Pre-gap length 0:00:02.67
Peak level 93.7 %
Track quality 100.0 %
Test CRC 6D7A479B
Copy CRC 6D7A479B
Accurately ripped (confidence 8) [57A5DB07]
Copy OK
All tracks accurately ripped
No errors occurred
End of status report
___________________________________________________
Exact Audio Copy V0.99 prebeta 4 from 23. January 2008
EAC extraction logfile from 29. December 2008, 12:58
Kate Wolf / Weaver Of Visions: The Kate Wolf Anthology CD 2
Used drive : TSSTcorpCDDVDW SH-S203B Adapter: 5 ID: 1
Read mode : Secure
Utilize accurate stream : Yes
Defeat audio cache : Yes
Make use of C2 pointers : No
Read offset correction : 6
Overread into Lead-In and Lead-Out : No
Fill up missing offset samples with silence : Yes
Delete leading and trailing silent blocks : No
Null samples used in CRC calculations : Yes
Used interface : Native Win32 interface for Win NT & 2000
Gap handling : Appended to previous track
Used output format : User Defined Encoder
Selected bitrate : 128 kBit/s
Quality : High
Add ID3 tag : No
Command line compressor : C:\Program Files\Exact Audio Copy\Flac\flac.exe
Additional command line options : -V -8 -T "artist=%a" -T "title=%t" -T "album=%g" -T "date=%y" -T "tracknumber=%n" -T "genre=%m" %s
TOC of the extracted CD
Track | Start | Length | Start sector | End sector
---------------------------------------------------------
1 | 0:00.32 | 5:30.55 | 32 | 24836
2 | 5:31.12 | 3:00.13 | 24837 | 38349
3 | 8:31.25 | 4:04.00 | 38350 | 56649
4 | 12:35.25 | 3:02.25 | 56650 | 70324
5 | 15:37.50 | 4:29.67 | 70325 | 90566
6 | 20:07.42 | 5:46.20 | 90567 | 116536
7 | 25:53.62 | 3:44.05 | 116537 | 133341
8 | 29:37.67 | 5:46.50 | 133342 | 159341
9 | 35:24.42 | 3:51.68 | 159342 | 176734
10 | 39:16.35 | 4:53.15 | 176735 | 198724
11 | 44:09.50 | 2:41.60 | 198725 | 210859
12 | 46:51.35 | 4:49.10 | 210860 | 232544
13 | 51:40.45 | 3:59.07 | 232545 | 250476
14 | 55:39.52 | 4:46.73 | 250477 | 271999
15 | 60:26.50 | 4:06.40 | 272000 | 290489
16 | 64:33.15 | 7:38.50 | 290490 | 324889
17 | 72:11.65 | 4:04.02 | 324890 | 343191
Track 1
Filename Y:\EACrips\Kate Wolf - Weaver Of Visions- The Kate Wolf Anthology CD 2 [2000]\01 Here in California.wav
Pre-gap length 0:00:02.32
Peak level 58.8 %
Track quality 99.9 %
Test CRC 8949FE63
Copy CRC 8949FE63
Accurately ripped (confidence 8) [0F33DC1C]
Copy OK
Track 2
Filename Y:\EACrips\Kate Wolf - Weaver Of Visions- The Kate Wolf Anthology CD 2 [2000]\02 Looking Back at You (Live).wav
Pre-gap length 0:00:00.52
Peak level 99.9 %
Track quality 100.0 %
Test CRC B48CB4B7
Copy CRC B48CB4B7
Accurately ripped (confidence 8) [115EDDBD]
Copy OK
Track 3
Filename Y:\EACrips\Kate Wolf - Weaver Of Visions- The Kate Wolf Anthology CD 2 [2000]\03 The Minstrel.wav
Pre-gap length 0:00:01.33
Peak level 84.7 %
Track quality 100.0 %
Test CRC 821ACD17
Copy CRC 821ACD17
Accurately ripped (confidence 8) [3BFEBE4B]
Copy OK
Track 4
Filename Y:\EACrips\Kate Wolf - Weaver Of Visions- The Kate Wolf Anthology CD 2 [2000]\04 Picture Puzzle (Live).wav
Pre-gap length 0:00:01.13
Peak level 92.0 %
Track quality 100.0 %
Test CRC D29A75E8
Copy CRC D29A75E8
Accurately ripped (confidence 8) [4A1C46AD]
Copy OK
Track 5
Filename Y:\EACrips\Kate Wolf - Weaver Of Visions- The Kate Wolf Anthology CD 2 [2000]\05 Cornflower Blue (Live).wav
Pre-gap length 0:00:01.25
Peak level 84.9 %
Track quality 100.0 %
Test CRC BF5C8DAB
Copy CRC BF5C8DAB
Accurately ripped (confidence 8) [8ACFF0DB]
Copy OK
Track 6
Filename Y:\EACrips\Kate Wolf - Weaver Of Visions- The Kate Wolf Anthology CD 2 [2000]\06 The Wind Blows Wild.wav
Pre-gap length 0:00:02.12
Peak level 86.1 %
Track quality 100.0 %
Test CRC 7E9A54E5
Copy CRC 7E9A54E5
Accurately ripped (confidence 8) [F6C315A0]
Copy OK
Track 7
Filename Y:\EACrips\Kate Wolf - Weaver Of Visions- The Kate Wolf Anthology CD 2 [2000]\07 You're Not Standing Like You Used To.wav
Pre-gap length 0:00:01.37
Peak level 82.0 %
Track quality 100.0 %
Test CRC C88A317B
Copy CRC C88A317B
Accurately ripped (confidence 8) [BDEFB6A0]
Copy OK
Track 8
Filename Y:\EACrips\Kate Wolf - Weaver Of Visions- The Kate Wolf Anthology CD 2 [2000]\08 Carolina Pines.wav
Pre-gap length 0:00:01.30
Peak level 86.3 %
Track quality 99.9 %
Test CRC 4A3A72A5
Copy CRC 4A3A72A5
Accurately ripped (confidence 8) [A2A74337]
Copy OK
Track 9
Filename Y:\EACrips\Kate Wolf - Weaver Of Visions- The Kate Wolf Anthology CD 2 [2000]\09 Medicine Wheel.wav
Pre-gap length 0:00:01.47
Peak level 72.4 %
Track quality 100.0 %
Test CRC 099E53B7
Copy CRC 099E53B7
Accurately ripped (confidence 8) [6B812450]
Copy OK
Track 10
Filename Y:\EACrips\Kate Wolf - Weaver Of Visions- The Kate Wolf Anthology CD 2 [2000]\10 Two-Way Waltz.wav
Pre-gap length 0:00:02.13
Peak level 97.2 %
Track quality 99.9 %
Test CRC 2F181EEE
Copy CRC 2F181EEE
Accurately ripped (confidence 8) [002C401B]
Copy OK
Track 11
Filename Y:\EACrips\Kate Wolf - Weaver Of Visions- The Kate Wolf Anthology CD 2 [2000]\11 The Lilac & The Apple.wav
Pre-gap length 0:00:02.70
Peak level 51.0 %
Track quality 100.0 %
Test CRC 92ADDC8F
Copy CRC 92ADDC8F
Accurately ripped (confidence 8) [A2B2F9D0]
Copy OK
Track 12
Filename Y:\EACrips\Kate Wolf - Weaver Of Visions- The Kate Wolf Anthology CD 2 [2000]\12 Shadow of a Life.wav
Pre-gap length 0:00:03.35
Peak level 52.3 %
Track quality 100.0 %
Test CRC F45EDB21
Copy CRC F45EDB21
Accurately ripped (confidence 8) [2DE865CC]
Copy OK
Track 13
Filename Y:\EACrips\Kate Wolf - Weaver Of Visions- The Kate Wolf Anthology CD 2 [2000]\13 She Rises Like the Dolphin.wav
Pre-gap length 0:00:01.43
Peak level 97.2 %
Track quality 99.9 %
Test CRC 9E602859
Copy CRC 9E602859
Accurately ripped (confidence 8) [D90DEE70]
Copy OK
Track 14
Filename Y:\EACrips\Kate Wolf - Weaver Of Visions- The Kate Wolf Anthology CD 2 [2000]\14 Poet's Heart.wav
Pre-gap length 0:00:00.65
Peak level 92.8 %
Track quality 100.0 %
Test CRC 1EEBFA75
Copy CRC 1EEBFA75
Accurately ripped (confidence 8) [AE1C2CAF]
Copy OK
Track 15
Filename Y:\EACrips\Kate Wolf - Weaver Of Visions- The Kate Wolf Anthology CD 2 [2000]\15 Friend of Mine (Live).wav
Pre-gap length 0:00:01.48
Peak level 82.7 %
Track quality 100.0 %
Test CRC D799F3B1
Copy CRC D799F3B1
Accurately ripped (confidence 8) [0678C525]
Copy OK
Track 16
Filename Y:\EACrips\Kate Wolf - Weaver Of Visions- The Kate Wolf Anthology CD 2 [2000]\16 Pacheco,The Redtail Hawk (Live).wav
Pre-gap length 0:00:01.03
Peak level 97.2 %
Track quality 100.0 %
Test CRC 5EB78282
Copy CRC 5EB78282
Accurately ripped (confidence 8) [0D4CC1AC]
Copy OK
Track 17
Filename Y:\EACrips\Kate Wolf - Weaver Of Visions- The Kate Wolf Anthology CD 2 [2000]\17 Back Roads.wav
Pre-gap length 0:00:01.05
Peak level 54.6 %
Track quality 100.0 %
Test CRC 6DC3F5A0
Copy CRC 6DC3F5A0
Accurately ripped (confidence 8) [3DA772E2]
Copy OK
All tracks accurately ripped
No errors occurred
End of status report
Послушайте Кейт - она прекрасна!
Download
Чтобы скачать .torrent файл необходима регистрация
Сайт не распространяет и не хранит электронные версии произведений, а лишь предоставляет доступ к создаваемому пользователями каталогу ссылок на торрент-файлы, которые содержат только списки хеш-сумм
[Профиль]  [ЛС] 
 

NOOBSTERpots

VIP (Заслуженный)

Стаж: 10 лет 11 месяцев

Сообщений: 5463

NOOBSTERpots · 29-Май-10 23:38 (спустя 4 часа)

[Цитировать] 

WestOst
Может быть имеет смысл перенести и эту раздачу http://1.maintracker.org/forum/viewtopic.php?t=1778021 в раздел?
[Профиль]  [ЛС] 

WestOst

Стаж: 11 лет

Сообщений: 414

WestOst · 29-Май-10 23:52 (спустя 14 мин.)

[Цитировать] 

NOOBSTERpots
Думаю да, в роке хоть и фолк ей точно делать нечего.
[Профиль]  [ЛС] 

bufal

Стаж: 6 лет

Сообщений: 226

bufal · 05-Янв-15 19:57 (спустя 4 года 7 месяцев)

[Цитировать] 

[Профиль]  [ЛС] 

Barkingside

Стаж: 6 лет 8 месяцев

Сообщений: 10


Barkingside · 17-Июн-18 11:14 (спустя 3 года 5 месяцев)

[Цитировать] 

This lady needs more exposure. I am embarrassed that I did not discover her until after her passing through.
[Профиль]  [ЛС] 
 
Ответить
Loading...
Error