Адрес РуТрекера для пользователей РФ - 11.MainTracker.org

Расскажи друзьям:  

Дэвид Линч - Жизнь в искусстве / David Lynch - The Art Life (Джон Нгуйен) [2016, документальный, WEB-DLRip] AVO JimmyJ

Страницы:  1

Ответить
Автор
Сообщение

filyse

Стаж: 7 лет 11 месяцев

Сообщений: 75


filyse · 19-Июн-17 22:02 (1 год 5 месяцев назад)





David Lynch - The Art Life
Дэвид Линч - Жизнь в искусстве

Год выхода: 2016
Страна: США, Дания
Жанр: документальный
Продолжительность: ~88 мин
Озвучка: Профессиональный (одноголосый закадровый) Jimmy J.

Режиссер: Джон Нгуйен, Рик Барнс, Оливия Неергаард-Холм
В ролях: Дэвид Линч
Описание: Очень личный монолог легендарного визионера Дэвида Линча об идиллическом детстве, тревожном студенчестве и поиске своего пути в искусстве. В художественной мастерской, среди странных объектов и сигаретного дыма создатель «Твин Пикса», «Малхолланд Драйв» и «Синего бархата» описывает гипнотические картины из своего прошлого, которые раскрываются как сцены из его фильмов. Безумные тени и причудливо человечные образы проявляются и угасают, отпечатываясь в воображении Линча — художника, музыканта и самого таинственного режиссера мирового кино.

Sample

Озвучка: Дмитрий Чепусов
Перевод: Элина Уракова
Качество: WEB-DLRip
Формат: AVI
Видео кодек: XviD
Аудио кодек: MP3
Видео: AVC, 720x400, ~1700 kbps, 23.976 fps, 0.264 bit/pixel
Аудио #1: Russian 48 KHz, MP3, 2.0 channels, 192 kbps AVO Jimmy J.
Аудио #2: Original 48 KHz, MP3, 2.0 channels, 192 kbps
Рип: Filyse
MediaInfo
Код:
General
Complete name               : D:\Release\JimmyJ\David.Lynch.The.Art.Life.WEB-DLRip.JimmyJ.avi
Format                      : AVI
Format/Info                 : Audio Video Interleave
Format profile              : OpenDML
File size                   : 1.35 GiB
Duration                    : 1 h 28 min
Overall bit rate            : 2 180 kb/s
Writing application         : Lavf57.71.100
Video
ID                          : 0
Format                      : MPEG-4 Visual
Format profile              : Advanced [email protected]
Format settings, BVOP       : 1
Format settings, QPel       : No
Format settings, GMC        : No warppoints
Format settings, Matrix     : Default (H.263)
Codec ID                    : XVID
Codec ID/Hint               : XviD
Duration                    : 1 h 28 min
Bit rate                    : 1 772 kb/s
Width                       : 700 pixels
Height                      : 400 pixels
Display aspect ratio        : 16:9
Frame rate                  : 23.976 (24000/1001) FPS
Color space                 : YUV
Chroma subsampling          : 4:2:0
Bit depth                   : 8 bits
Scan type                   : Progressive
Compression mode            : Lossy
Bits/(Pixel*Frame)          : 0.264
Stream size                 : 1.10 GiB (81%)
Title                       : http://vk.com/hardkor_tom
Writing library             : XviD 67
Audio #1
ID                          : 1
Format                      : MPEG Audio
Format version              : Version 1
Format profile              : Layer 3
Mode                        : Joint stereo
Mode extension              : MS Stereo
Codec ID                    : 55
Codec ID/Hint               : MP3
Duration                    : 1 h 28 min
Bit rate mode               : Constant
Bit rate                    : 192 kb/s
Channel(s)                  : 2 channels
Sampling rate               : 48.0 kHz
Compression mode            : Lossy
Stream size                 : 122 MiB (9%)
Alignment                   : Aligned on interleaves
Interleave, duration        : 24  ms (0.58 video frame)
Title                       : AVO JimmyJ
Audio #2
ID                          : 2
Format                      : MPEG Audio
Format version              : Version 1
Format profile              : Layer 3
Mode                        : Joint stereo
Codec ID                    : 55
Codec ID/Hint               : MP3
Duration                    : 1 h 28 min
Bit rate mode               : Constant
Bit rate                    : 192 kb/s
Channel(s)                  : 2 channels
Sampling rate               : 48.0 kHz
Compression mode            : Lossy
Stream size                 : 122 MiB (9%)
Alignment                   : Aligned on interleaves
Interleave, duration        : 24  ms (0.58 video frame)
Title                       : Original
Writing library             : LAME

Скриншоты
Download
Чтобы скачать .torrent файл необходима регистрация
Сайт не распространяет и не хранит электронные версии произведений, а лишь предоставляет доступ к создаваемому пользователями каталогу ссылок на торрент-файлы, которые содержат только списки хеш-сумм
[Профиль]  [ЛС] 
 

safonovak

Стаж: 8 лет 10 месяцев

Сообщений: 2


safonovak · 06-Июл-18 00:23 (спустя 1 год)

[Цитировать] 

Аудио скрипит и трещит. В русской дорожке невыносимо, в английской - слабее, но тоже не позволяет смотреть
[Профиль]  [ЛС] 
 
Ответить
Loading...
Error