Адрес РуТрекера для пользователей РФ - 11.MainTracker.org

Расскажи друзьям:  

(Progressive Rock) [WEB] Oaksenham - Upon All The Living And The Dead - 2018, FLAC (tracks), lossless

Страницы:  1

Ответить
Автор
Сообщение

verbiya

Стаж: 7 лет 5 месяцев

Сообщений: 632

verbiya · 22-Сен-18 10:38 (2 месяца 26 дней назад)

Oaksenham / Upon All The Living And The Dead
Жанр: Progressive Rock
Носитель: WEB
Год издания: 2018
Страна исполнителя (группы): Armenia
Аудиокодек: FLAC (*.flac)
Тип рипа: tracks
Битрейт аудио: lossless
Продолжительность: 59:46
Источник (релизер): Bandcamp
Наличие сканов в содержимом раздачи: нет

01. Death Penalty [00:04:58]
02. Wintermaid [00:05:45]
03. Storm in the Crown [00:05:23]
04. Snow [00:04:22]
05. Oakwood [00:07:46]
06. Moonage [00:06:54]
07. Adventures of the Violet [00:06:37]
08. Made in Fugue [00:02:45]
09. Muse [00:09:08]
10. Afterdeath Fantasy [00:06:04]
Released August 20, 2018

Состав
Vahagn Papayan – Bass Guitar
Ashot Korganyan – Drums
Vardan Gasparyan – Electric and Acoustic Guitars
Vardan Harutyunyan – Keyboards, Grand Piano, Electronic Effects (6)
Aram Asatryan – Violin
Special guests:
Shushan Petrosyan – Vocals (4,9)
Valery Tolstov – Flute (6)
Andranik Kochar – Bassoon (6)
Backing vocals (9) - soprano group of “Geghard” vocal ensemble:
Anahit Papayan, Sona Varpetyan, Luisa Avagyan
Лог проверки качества
-----------------------
DON'T MODIFY THIS FILE
-----------------------
PERFORMER: auCDtect Task Manager, ver. 1.6.0 RC1 build 1.6.0.1
Copyright (c) 2008-2010 y-soft. All rights reserved
http://y-soft.org
ANALYZER: auCDtect: CD records authenticity detector, version 0.8.2
Copyright (c) 2004 Oleg Berngardt. All rights reserved.
Copyright (c) 2004 Alexander Djourik. All rights reserved.
FILE: OAKSENHAM - Upon All The Living And The Dead - 10 Afterdeath Fantasy.flac
Size: 41704395 Hash: 5633BFA6F6379547676DF740C670651E Accuracy: -m0
Conclusion: MPEG 99%
Signature: 6F4F8413A0004ABEE7CC9A90580FDB6F111BFA52
FILE: OAKSENHAM - Upon All The Living And The Dead - 09 Muse.flac
Size: 61028757 Hash: 7892DD404FDED3AF4A3C689AD12A9568 Accuracy: -m0
Conclusion: CDDA 85%
Signature: 8E068FD7039EFF189D1D8C4302E8B42331361C89
FILE: OAKSENHAM - Upon All The Living And The Dead - 08 Made in Fugue.flac
Size: 17167941 Hash: 79A30E2B2515E7B2569800F1ECBD8EFD Accuracy: -m0
Conclusion: CDDA 92%
Signature: CF2C4348BAFDEFE421AA9DAC340AF9F77264913A
FILE: OAKSENHAM - Upon All The Living And The Dead - 07 Adventures of the Violet.flac
Size: 44406577 Hash: 393BB17CDDB5F713294D60D111878B60 Accuracy: -m0
Conclusion: MPEG 98%
Signature: 41D5F1EA08C24589C9C030EA146CEF5FB637F2E5
FILE: OAKSENHAM - Upon All The Living And The Dead - 06 Moonage.flac
Size: 42053565 Hash: D6576F745FAA00977AF1E3646FBA4442 Accuracy: -m0
Conclusion: CDDA 43%
Signature: F377F1C71ACE95EB3922A7B1B355C348265F4469
FILE: OAKSENHAM - Upon All The Living And The Dead - 05 Oakwood.flac
Size: 54833440 Hash: C2B6771C01813F54C1DF62427734E259 Accuracy: -m0
Conclusion: MPEG 99%
Signature: A54B00012D20782E067D992A0AD2DE30A21E4EA2
FILE: OAKSENHAM - Upon All The Living And The Dead - 04 Snow.flac
Size: 26822738 Hash: DFEFA5BC2AA4DAF6DA8C66AEF3D400B7 Accuracy: -m0
Conclusion: MPEG 90%
Signature: 59CBC8106D94C4F94B3EDA3A2DF25B17C992AA71
FILE: OAKSENHAM - Upon All The Living And The Dead - 03 Storm in the Crown.flac
Size: 35226738 Hash: BEDEE176469A14E17CBD44CD715B5F28 Accuracy: -m0
Conclusion: CDDA 43%
Signature: CC3213894291D4146F93C2843447ABF36EBC73BF
FILE: OAKSENHAM - Upon All The Living And The Dead - 02 Wintermaid.flac
Size: 38408352 Hash: 830B082333D2DA198250D7900285C4B3 Accuracy: -m0
Conclusion: MPEG 99%
Signature: 62364A7AB35D2C48DAEFD71F0980B56435261232
FILE: OAKSENHAM - Upon All The Living And The Dead - 01 Death Penalty.flac
Size: 33686963 Hash: 7365E54CD6EFED0A76D6A43AEE5D8B4A Accuracy: -m0
Conclusion: CDDA 43%
Signature: A4CD5F1157D424028172133D848925E522EA6F3C
Скриншот спектра частот




DRM log
foobar2000 1.3.12 / Dynamic Range Meter 1.1.1
log date: 2018-09-22 09:58:36
--------------------------------------------------------------------------------
Analyzed: OAKSENHAM / Upon All The Living And The Dead
--------------------------------------------------------------------------------
DR Peak RMS Duration Track
--------------------------------------------------------------------------------
DR11 -0.09 dB -12.50 dB 4:58 01-Death Penalty
DR12 0.00 dB -13.20 dB 5:46 02-Wintermaid
DR10 -0.11 dB -12.23 dB 5:23 03-Storm in the Crown
DR12 -0.20 dB -14.72 dB 4:23 04-Snow
DR11 0.00 dB -12.72 dB 7:46 05-Oakwood
DR10 0.00 dB -13.74 dB 6:55 06-Moonage
DR10 -0.05 dB -11.57 dB 6:37 07-Adventures of the Violet
DR10 0.00 dB -12.25 dB 2:46 08-Made in Fugue
DR11 -0.15 dB -12.75 dB 9:08 09-Muse
DR10 -0.04 dB -11.71 dB 6:04 10-Afterdeath Fantasy
--------------------------------------------------------------------------------
Number of tracks: 10
Official DR value: DR11
Samplerate: 44100 Hz
Channels: 2
Bits per sample: 16
Bitrate: 915 kbps
Codec: FLAC
================================================================================



Download
Чтобы скачать .torrent файл необходима регистрация
Сайт не распространяет и не хранит электронные версии произведений, а лишь предоставляет доступ к создаваемому пользователями каталогу ссылок на торрент-файлы, которые содержат только списки хеш-сумм
[Профиль]  [ЛС] 
 

JonLord

Стаж: 11 лет 3 месяца

Сообщений: 622

JonLord · 22-Сен-18 11:29 (спустя 50 мин.)

[Цитировать] 

Спасибо, достойная команда
[Профиль]  [ЛС] 

wurensh

Moderator

Стаж: 8 лет 10 месяцев

Сообщений: 5490

wurensh · 22-Сен-18 13:52 (спустя 2 часа 23 мин.)

[Цитировать] 

Кто бы мог подумать... спустя 12 лет свежий альбом (пускай digital only) и весьма недурственный.
Спасибо!
[Профиль]  [ЛС] 

lasttone

Стаж: 9 лет 2 месяца

Сообщений: 63


lasttone · 22-Сен-18 21:27 (спустя 7 часов)

[Цитировать] 

Весьма.
[Профиль]  [ЛС] 
 
Ответить
Loading...
Error