Адрес РуТрекера для пользователей РФ - 11.MainTracker.org

Расскажи друзьям:  

(Zeuhl, Jazz rock, Canterbury, Avant-prog) [CD] Francois Thollot / Scherzoo — Дискография (2002, 2012-2018; 2CD+4CD); FLAC (image+.cue), lossless

Страницы:  1

Ответить
Автор
Сообщение

spAceLover

Lossless Group

Стаж: 9 лет 5 месяцев

Сообщений: 1548

spAceLover · 17-Мар-15 12:44 (3 года 9 месяцев назад, ред. 30-Сен-18 22:43)

François Thollot / ScherzooДискография — 2002, 2011–18
Жанр: Progressive rock/Zeuhl/Jazz rock/Canterbury/Avant-prog
Страна исполнителя: France
Годы выпуска дисков: 2011–2018
Производитель дисков: France, Soleil Zeuhl/Soleil Mutant
Номерá по каталогу: указаны ниже
Аудио кодек: FLAC
Тип рипа: image+.cue
Битрейт аудио: lossless
Продолжительность: 01:32:12 + 03:37:50
Наличие сканов в содержимом раздачи: да
Источник: моя коллекция CD


Информация по François Thollot: ProgArchives
Информация по Scherzoo: ProgArchives | Официальный сайт
Студийные альбомы François Thollot:
2002) Ceux d’en Face
2002) Contact
Студийные альбомы Scherzoo:
2011) 01
2012) 02
2014) 03
2018) 04

После трёх альбомов каждый год, четвёртый альбом Scherzoo вышел через 4 года и после почти 2 лет молчания Soleil Zeuhl. По-прежнему группа жирно и плотно играет на грани авангарда смесь таких жанров, как zeuhl, джаз-рок и кентербери.
Кроме того, в обновлённую раздачу включаются два предшествующих сольных альбома François Thollot. Многие вещи с них были переиграны заново на первых двух альбомах Scherzoo.



François Thollot
2002) Ceux d’en Face [Soleil Zeuhl, SZ 07]


Tracks:
01. Ceux d’en Face [04:31.253]
02. Enilek [06:26.667]
03. Invasion [04:51.800]
04. Expérimentations Sentimentales [06:08.107]
05. Marilyn-Antoinette [06:04.400]
06. Vingt-Trois [05:47.027]
07. Voyage au Bout de la Nuit [12:15.253]

Line-up:
François Thollot — guitar, bass, piano, drums


Отчёт EAC

Exact Audio Copy V1.0 beta 3 from 29. August 2011
Отчёт EAC об извлечении, выполненном 17. марта 2015, 19:34
François THOLLOT / Ceux d'en Face
Дисковод: TSSTcorpCDDVDW SH-224DB Adapter: 4 ID: 1
Режим чтения : Достоверность
Использование точного потока : Да
Отключение кэша аудио : Да
Использование указателей C2 : Нет
Коррекция смещения при чтении : 6
Способность читать области Lead-in и Lead-out : Нет
Заполнение пропущенных сэмплов тишиной : Да
Удаление блоков с тишиной в начале и конце : Нет
При вычислениях CRC использовались нулевые сэмплы : Да
Интерфейс : Встроенный Win32-интерфейс для Win NT/2000
Выходной формат : Внутренние WAV-операции
Формат сэмплов : 44.100 Гц; 16 бит; стерео
TOC извлечённого CD
Трек | Старт | Длительность | Начальный сектор | Конечный сектор
---------------------------------------------------------------------
1 | 0:00.33 | 4:33.05 | 33 | 20512
2 | 4:33.38 | 6:29.26 | 20513 | 49713
3 | 11:02.64 | 4:54.24 | 49714 | 71787
4 | 15:57.13 | 6:11.39 | 71788 | 99651
5 | 22:08.52 | 6:05.70 | 99652 | 127096
6 | 28:14.47 | 5:50.08 | 127097 | 153354
7 | 34:04.55 | 12:15.19 | 153355 | 208498
Характеристики диапазона извлечения и сообщения об ошибках
Выбранный диапазон
Имя файла D:\TEMP\Francois THOLLOT - 2002 - Ceux d'en Face [Soleil Zeuhl, SZ 07].wav
Пиковый уровень 97.5 %
Скорость извлечения 2.3 X
Качество диапазона 100.0 %
CRC теста 94BC856E
CRC копии 94BC856E
Копирование... OK
Ошибок не произошло
AccurateRip: сводка
Трек 1 : извлечено точно (доверие 2) [174E4CAC] (AR v1)
Трек 2 : извлечено точно (доверие 2) [64CD52D6] (AR v1)
Трек 3 : извлечено точно (доверие 2) [B8F6F278] (AR v1)
Трек 4 : извлечено точно (доверие 2) [4B305BB6] (AR v1)
Трек 5 : извлечено точно (доверие 2) [71D80A6B] (AR v1)
Трек 6 : извлечено точно (доверие 2) [3C40BF64] (AR v1)
Трек 7 : извлечено точно (доверие 2) [AA372300] (AR v1)
Все треки извлечены точно
Конец отчёта
==== Контрольная сумма отчёта 3CBD44CD95A5A587BEE8218C3A6ADB81D178036EE1EB3C9C2414C64FE1FBC262 ====
CUE-файл для проигрывания (для WAV также имеется)

REM GENRE "Progressive Rock/Zeuhl"
REM DATE 2002
REM DISCID 600ADB07
REM COMMENT "ExactAudioCopy v1.0b3"
PERFORMER "François THOLLOT"
TITLE "Ceux d’en Face"
FILE "Francois THOLLOT - 2002 - Ceux d'en Face [Soleil Zeuhl, SZ 07].flac" WAVE
TRACK 01 AUDIO
TITLE "Ceux d’en Face"
PERFORMER "François THOLLOT"
FLAGS DCP
INDEX 00 00:00:00
INDEX 01 00:00:33
TRACK 02 AUDIO
TITLE "Enilek"
PERFORMER "François THOLLOT"
FLAGS DCP
INDEX 00 04:31:52
INDEX 01 04:33:38
TRACK 03 AUDIO
TITLE "Invasion"
PERFORMER "François THOLLOT"
FLAGS DCP
INDEX 00 11:00:13
INDEX 01 11:02:64
TRACK 04 AUDIO
TITLE "Expérimentations Sentimentales"
PERFORMER "François THOLLOT"
FLAGS DCP
INDEX 00 15:54:49
INDEX 01 15:57:13
TRACK 05 AUDIO
TITLE "Marilyn-Antoinette"
PERFORMER "François THOLLOT"
FLAGS DCP
INDEX 00 22:05:21
INDEX 01 22:08:52
TRACK 06 AUDIO
TITLE "Vingt-Trois"
PERFORMER "François THOLLOT"
FLAGS DCP
INDEX 00 28:13:07
INDEX 01 28:14:47
TRACK 07 AUDIO
TITLE "Voyage au Bout de la Nuit"
PERFORMER "François THOLLOT"
FLAGS DCP
INDEX 00 34:01:49
INDEX 01 34:04:55
Матрица CD
Динамический диапазон

foobar2000 1.3.17 / Dynamic Range Meter 1.1.1
log date: 2018-03-29 20:39:23
--------------------------------------------------------------------------------
Analyzed: François THOLLOT / Ceux d’en Face
--------------------------------------------------------------------------------
DR Peak RMS Duration Track
--------------------------------------------------------------------------------
DR11 -0.22 dB -14.10 dB 4:33 01-Ceux d’en Face
DR11 -0.26 dB -15.05 dB 6:29 02-Enilek
DR10 -0.29 dB -13.69 dB 4:54 03-Invasion
DR10 -0.33 dB -12.49 dB 6:12 04-Expérimentations Sentimentales
DR9 -0.38 dB -12.06 dB 6:06 05-Marilyn-Antoinette
DR10 -0.24 dB -12.88 dB 5:50 06-Vingt-Trois
DR10 -0.39 dB -13.52 dB 12:15 07-Voyage au Bout de la Nuit
--------------------------------------------------------------------------------
Number of tracks: 7
Official DR value: DR10
Samplerate: 44100 Hz
Channels: 2
Bits per sample: 16
Bitrate: 862 kbps
Codec: FLAC
================================================================================
2002) Contact [Soleil Zeuhl, SZ 09]


Tracks:
01. Ascension [06:03.853]
02. Histoire Triste [04:51.093]
03. Promenade Urgente [04:18.693]
04. 13e Parallèle [05:38.520]
05. Etude Plombée [04:11.200]
06. Blues du Crabe [04:00.067]
07. Cyclopède [04:39.187]
08. Léon le Hérisson [03:36.813]
09. Cabanon Oriental [03:40.000]
10. Indefiniment [04:35.093]

Line-up:
François Thollot — guitar, piano
Philippe Bussonnet — bass
Daniel Jeand’Heur — drums; piano (2, 3), synthesizer (10)


Отчёт EAC

Exact Audio Copy V1.0 beta 3 from 29. August 2011
Отчёт EAC об извлечении, выполненном 17. марта 2015, 19:55
François THOLLOT / Contact
Дисковод: TSSTcorpCDDVDW SH-224DB Adapter: 4 ID: 1
Режим чтения : Достоверность
Использование точного потока : Да
Отключение кэша аудио : Да
Использование указателей C2 : Нет
Коррекция смещения при чтении : 6
Способность читать области Lead-in и Lead-out : Нет
Заполнение пропущенных сэмплов тишиной : Да
Удаление блоков с тишиной в начале и конце : Нет
При вычислениях CRC использовались нулевые сэмплы : Да
Интерфейс : Встроенный Win32-интерфейс для Win NT/2000
Выходной формат : Внутренние WAV-операции
Формат сэмплов : 44.100 Гц; 16 бит; стерео
TOC извлечённого CD
Трек | Старт | Длительность | Начальный сектор | Конечный сектор
---------------------------------------------------------------------
1 | 0:00.00 | 6:05.64 | 0 | 27438
2 | 6:05.64 | 4:53.07 | 27439 | 49420
3 | 10:58.71 | 4:21.52 | 49421 | 69047
4 | 15:20.48 | 5:39.39 | 69048 | 94511
5 | 21:00.12 | 4:13.15 | 94512 | 113501
6 | 25:13.27 | 4:01.05 | 113502 | 131581
7 | 29:14.32 | 4:42.14 | 131582 | 152745
8 | 33:56.46 | 3:38.61 | 152746 | 169156
9 | 37:35.32 | 3:42.00 | 169157 | 185806
10 | 41:17.32 | 4:35.07 | 185807 | 206438
Характеристики диапазона извлечения и сообщения об ошибках
Выбранный диапазон
Имя файла D:\TEMP\Francois THOLLOT - 2002 - Contact [Soleil Zeuhl, SZ 09].wav
Пиковый уровень 99.6 %
Скорость извлечения 7.2 X
Качество диапазона 100.0 %
CRC теста 1C8C6BAE
CRC копии 1C8C6BAE
Копирование... OK
Ошибок не произошло
AccurateRip: сводка
Трек 1 : извлечено точно (доверие 2) [ADBD4DD7] (AR v2)
Трек 2 : извлечено точно (доверие 2) [C923E433] (AR v2)
Трек 3 : извлечено точно (доверие 2) [51A60DA3] (AR v2)
Трек 4 : извлечено точно (доверие 2) [2E95012B] (AR v2)
Трек 5 : извлечено точно (доверие 2) [53D916B3] (AR v2)
Трек 6 : извлечено точно (доверие 2) [222B8D99] (AR v2)
Трек 7 : извлечено точно (доверие 2) [95AAF9C1] (AR v2)
Трек 8 : извлечено точно (доверие 2) [ED293767] (AR v2)
Трек 9 : извлечено точно (доверие 2) [A23F0F9E] (AR v2)
Трек 10 : извлечено точно (доверие 2) [1E259790] (AR v2)
Все треки извлечены точно
Конец отчёта
==== Контрольная сумма отчёта 1C95A44B9EE6A29E3882FF0317902075CDD4C71564DBE48C801160A243EE035B ====
CUE-файл для проигрывания (для WAV также имеется)

REM GENRE "Progressive Rock/Zeuhl"
REM DATE 2002
REM DISCID 880AC00A
REM COMMENT "ExactAudioCopy v1.0b3"
PERFORMER "François THOLLOT"
TITLE "Contact"
FILE "Francois THOLLOT - 2002 - Contact [Soleil Zeuhl, SZ 09].flac" WAVE
TRACK 01 AUDIO
TITLE "Ascension"
PERFORMER "François THOLLOT"
INDEX 01 00:00:00
TRACK 02 AUDIO
TITLE "Histoire Triste"
PERFORMER "François THOLLOT"
INDEX 00 06:03:64
INDEX 01 06:05:64
TRACK 03 AUDIO
TITLE "Promenade Urgente"
PERFORMER "François THOLLOT"
INDEX 00 10:56:71
INDEX 01 10:58:71
TRACK 04 AUDIO
TITLE "13e Parallèle"
PERFORMER "François THOLLOT"
INDEX 00 15:17:48
INDEX 01 15:20:48
TRACK 05 AUDIO
TITLE "Etude Plombée"
PERFORMER "François THOLLOT"
INDEX 00 20:59:12
INDEX 01 21:00:12
TRACK 06 AUDIO
TITLE "Blues du Crabe"
PERFORMER "François THOLLOT"
INDEX 00 25:11:27
INDEX 01 25:13:27
TRACK 07 AUDIO
TITLE "Cyclopède"
PERFORMER "François THOLLOT"
INDEX 00 29:13:32
INDEX 01 29:14:32
TRACK 08 AUDIO
TITLE "Léon le Hérisson"
PERFORMER "François THOLLOT"
INDEX 00 33:53:46
INDEX 01 33:56:46
TRACK 09 AUDIO
TITLE "Cabanon Oriental"
PERFORMER "François THOLLOT"
INDEX 00 37:33:32
INDEX 01 37:35:32
TRACK 10 AUDIO
TITLE "Indefiniment"
PERFORMER "François THOLLOT"
INDEX 00 41:15:32
INDEX 01 41:17:32
Матрица CD
Динамический диапазон

foobar2000 1.3.17 / Dynamic Range Meter 1.1.1
log date: 2018-03-29 20:45:53
--------------------------------------------------------------------------------
Analyzed: François THOLLOT / Contact
--------------------------------------------------------------------------------
DR Peak RMS Duration Track
--------------------------------------------------------------------------------
DR10 -0.09 dB -11.94 dB 6:06 01-Ascension
DR11 -0.03 dB -13.61 dB 4:53 02-Histoire Triste
DR12 -0.08 dB -13.46 dB 4:22 03-Promenade Urgente
DR11 -0.03 dB -13.01 dB 5:40 04-13e Parallèle
DR12 -0.23 dB -13.79 dB 4:13 05-Etude Plombée
DR11 -0.03 dB -12.51 dB 4:01 06-Blues du Crabe
DR13 -0.03 dB -15.69 dB 4:42 07-Cyclopède
DR11 -0.03 dB -12.62 dB 3:39 08-Léon le Hérisson
DR9 -1.10 dB -11.63 dB 3:42 09-Cabanon Oriental
DR12 -0.04 dB -13.16 dB 4:35 10-Indefiniment
--------------------------------------------------------------------------------
Number of tracks: 10
Official DR value: DR11
Samplerate: 44100 Hz
Channels: 2
Bits per sample: 16
Bitrate: 936 kbps
Codec: FLAC
================================================================================



Scherzoo
2011) 01 [Soleil Zeuhl, SZ 28]


Tracks:
01. Enilek [08:25.52]
02. Douz [07:16.04]
03. L’an 01 [06:26.73]
04. Béba [08:40.76]
05. Ceux d’en Face [06:39.39]
06. Voyage au Bout de la Nuit [19:15.17]

Line-up:
Anthony Béard — bass
François Mignot — guitar
Jérémy Van Quackebeke — piano
Guillaume Lagache — alto saxophone
François Thollot — drums


Отчёт EAC

Exact Audio Copy V1.0 beta 3 from 29. August 2011
Отчёт EAC об извлечении, выполненном 19. ноября 2014, 23:13
SCHERZOO / 01
Дисковод: TSSTcorpCDDVDW SH-224DB Adapter: 4 ID: 1
Режим чтения : Достоверность
Использование точного потока : Да
Отключение кэша аудио : Да
Использование указателей C2 : Нет
Коррекция смещения при чтении : 6
Способность читать области Lead-in и Lead-out : Нет
Заполнение пропущенных сэмплов тишиной : Да
Удаление блоков с тишиной в начале и конце : Нет
При вычислениях CRC использовались нулевые сэмплы : Да
Интерфейс : Встроенный Win32-интерфейс для Win NT/2000
Выходной формат : Внутренние WAV-операции
Формат сэмплов : 44.100 Гц; 16 бит; стерео
TOC извлечённого CD
Трек | Старт | Длительность | Начальный сектор | Конечный сектор
---------------------------------------------------------------------
1 | 0:00.00 | 8:25.39 | 0 | 37913
2 | 8:25.39 | 7:16.03 | 37914 | 70616
3 | 15:41.42 | 6:26.55 | 70617 | 99621
4 | 22:08.22 | 8:40.57 | 99622 | 138678
5 | 30:49.04 | 6:39.29 | 138679 | 168632
6 | 37:28.33 | 19:15.13 | 168633 | 255270
Характеристики диапазона извлечения и сообщения об ошибках
Выбранный диапазон
Имя файла D:\TEMP\SCHERZOO - 2011 - 01 [Soleil Zeuhl 28].wav
Пиковый уровень 96.5 %
Скорость извлечения 7.5 X
Качество диапазона 100.0 %
CRC теста 3EDCCF61
CRC копии 3EDCCF61
Копирование... OK
Ошибок не произошло
AccurateRip: сводка
Трек 1 : извлечено точно (доверие 6) [B787A3CE] (AR v2)
Трек 2 : извлечено точно (доверие 6) [15A832B5] (AR v2)
Трек 3 : извлечено точно (доверие 6) [13BA5DFD] (AR v2)
Трек 4 : извлечено точно (доверие 6) [54FD2FBA] (AR v2)
Трек 5 : извлечено точно (доверие 6) [464B20B6] (AR v2)
Трек 6 : извлечено точно (доверие 6) [80E25BF8] (AR v2)
Все треки извлечены точно
Конец отчёта
==== Контрольная сумма отчёта 6CB94FF2286C4A7D905E64A37A20D4E9E2FE581CEA14B25F4083B8AC773170BE ====
CUE-файл для проигрывания (для WAV также имеется)

REM GENRE "Progressive Rock/Zeuhl"
REM DATE 2011
REM DISCID 3D0D4B06
REM COMMENT "ExactAudioCopy v1.0b3"
PERFORMER "SCHERZOO"
TITLE "01"
FILE "SCHERZOO - 2011 - 01 [Soleil Zeuhl 28].flac" WAVE
TRACK 01 AUDIO
TITLE "Enilek"
PERFORMER "SCHERZOO"
FLAGS DCP
INDEX 01 00:00:00
TRACK 02 AUDIO
TITLE "Douz"
PERFORMER "SCHERZOO"
FLAGS DCP
INDEX 01 08:25:39
TRACK 03 AUDIO
TITLE "L’an 01"
PERFORMER "SCHERZOO"
FLAGS DCP
INDEX 01 15:41:42
TRACK 04 AUDIO
TITLE "Béba"
PERFORMER "SCHERZOO"
FLAGS DCP
INDEX 01 22:08:22
TRACK 05 AUDIO
TITLE "Ceux d’en Face"
PERFORMER "SCHERZOO"
FLAGS DCP
INDEX 01 30:49:04
TRACK 06 AUDIO
TITLE "Voyage au Bout de la Nuit"
PERFORMER "SCHERZOO"
FLAGS DCP
INDEX 01 37:28:33
Матрица CD
Динамический диапазон

foobar2000 1.3.17 / Dynamic Range Meter 1.1.1
log date: 2018-03-29 20:15:52
--------------------------------------------------------------------------------
Analyzed: SCHERZOO / 01
--------------------------------------------------------------------------------
DR Peak RMS Duration Track
--------------------------------------------------------------------------------
DR9 -0.30 dB -11.78 dB 8:26 01-Enilek
DR8 -0.30 dB -10.95 dB 7:16 02-Douz
DR8 -0.30 dB -10.79 dB 6:27 03-L’an 01
DR9 -0.30 dB -11.71 dB 8:41 04-Béba
DR9 -0.30 dB -11.26 dB 6:39 05-Ceux d’en Face
DR9 -0.30 dB -11.30 dB 19:15 06-Voyage au Bout de la Nuit
--------------------------------------------------------------------------------
Number of tracks: 6
Official DR value: DR9
Samplerate: 44100 Hz
Channels: 2
Bits per sample: 16
Bitrate: 858 kbps
Codec: FLAC
================================================================================
2012) 02 [Soleil Zeuhl, SZ 31]


Tracks:
01. Yin/Yang [07:37.640]
02. 02 [08:04.787]
03. M.A. Suite [07:52.293]
04. Six Feet Under [07:01.920]
05. Invasion [04:47.280]
06. Breaking Bad [06:06.933]
07. Vingt-Trois [04:20.653]
08. 18h09 [05:24.387]

Line-up:
Anthony Béard — bass
François Mignot — guitar
Jérémy Van Quackebeke — piano
Guillaume Lagache — alto saxophone
François Thollot — drums


Отчёт EAC

Exact Audio Copy V1.0 beta 3 from 29. August 2011
Отчёт EAC об извлечении, выполненном 19. ноября 2014, 23:32
SCHERZOO / 02
Дисковод: TSSTcorpCDDVDW SH-224DB Adapter: 4 ID: 1
Режим чтения : Достоверность
Использование точного потока : Да
Отключение кэша аудио : Да
Использование указателей C2 : Нет
Коррекция смещения при чтении : 6
Способность читать области Lead-in и Lead-out : Нет
Заполнение пропущенных сэмплов тишиной : Да
Удаление блоков с тишиной в начале и конце : Нет
При вычислениях CRC использовались нулевые сэмплы : Да
Интерфейс : Встроенный Win32-интерфейс для Win NT/2000
Выходной формат : Внутренние WAV-операции
Формат сэмплов : 44.100 Гц; 16 бит; стерео
TOC извлечённого CD
Трек | Старт | Длительность | Начальный сектор | Конечный сектор
---------------------------------------------------------------------
1 | 0:00.00 | 7:37.48 | 0 | 34322
2 | 7:37.48 | 8:04.59 | 34323 | 70681
3 | 15:42.32 | 7:52.22 | 70682 | 106103
4 | 23:34.54 | 7:01.69 | 106104 | 137747
5 | 30:36.48 | 4:47.21 | 137748 | 159293
6 | 35:23.69 | 6:06.70 | 159294 | 186813
7 | 41:30.64 | 4:20.49 | 186814 | 206362
8 | 45:51.38 | 5:24.29 | 206363 | 230691
Характеристики диапазона извлечения и сообщения об ошибках
Выбранный диапазон
Имя файла D:\TEMP\SCHERZOO - 2012 - 02 [Soleil Zeuhl 31].wav
Пиковый уровень 97.7 %
Скорость извлечения 7.3 X
Качество диапазона 100.0 %
CRC теста 76852D98
CRC копии 76852D98
Копирование... OK
Ошибок не произошло
AccurateRip: сводка
Трек 1 : извлечено точно (доверие 3) [E8844CFC] (AR v2)
Трек 2 : извлечено точно (доверие 3) [1245B11C] (AR v2)
Трек 3 : извлечено точно (доверие 3) [F5CF9AFE] (AR v2)
Трек 4 : извлечено точно (доверие 3) [BE19B136] (AR v2)
Трек 5 : извлечено точно (доверие 3) [6EE1F044] (AR v2)
Трек 6 : извлечено точно (доверие 3) [6043F264] (AR v2)
Трек 7 : извлечено точно (доверие 3) [05263120] (AR v2)
Трек 8 : извлечено точно (доверие 3) [F15D3F0B] (AR v2)
Все треки извлечены точно
Конец отчёта
==== Контрольная сумма отчёта AD533048B9A8BD8A2C8514B780E86353D3486DD4F1A0A4DAECBA158B03774B80 ====
CUE-файл для проигрывания (для WAV также имеется)

REM GENRE "Progressive Rock/Zeuhl"
REM DATE 2012
REM DISCID 710C0308
REM COMMENT "ExactAudioCopy v1.0b3"
PERFORMER "SCHERZOO"
TITLE "02"
FILE "SCHERZOO - 2012 - 02 [Soleil Zeuhl 31].flac" WAVE
TRACK 01 AUDIO
TITLE "Yin/Yang"
PERFORMER "SCHERZOO"
INDEX 01 00:00:00
TRACK 02 AUDIO
TITLE "02"
PERFORMER "SCHERZOO"
INDEX 01 07:37:48
TRACK 03 AUDIO
TITLE "M.A. Suite"
PERFORMER "SCHERZOO"
INDEX 01 15:42:32
TRACK 04 AUDIO
TITLE "Six Feet Under"
PERFORMER "SCHERZOO"
INDEX 01 23:34:54
TRACK 05 AUDIO
TITLE "Invasion"
PERFORMER "SCHERZOO"
INDEX 01 30:36:48
TRACK 06 AUDIO
TITLE "Breaking Bad"
PERFORMER "SCHERZOO"
INDEX 01 35:23:69
TRACK 07 AUDIO
TITLE "Vingt-Trois"
PERFORMER "SCHERZOO"
INDEX 01 41:30:64
TRACK 08 AUDIO
TITLE "18h09"
PERFORMER "SCHERZOO"
INDEX 01 45:51:38
Матрица CD
Динамический диапазон

foobar2000 1.3.17 / Dynamic Range Meter 1.1.1
log date: 2018-03-29 20:16:41
--------------------------------------------------------------------------------
Analyzed: SCHERZOO / 02
--------------------------------------------------------------------------------
DR Peak RMS Duration Track
--------------------------------------------------------------------------------
DR6 -0.20 dB -7.69 dB 7:38 01-Yin/Yang
DR7 -0.20 dB -8.55 dB 8:05 02-02
DR7 -0.20 dB -8.62 dB 7:52 03-M.A. Suite
DR7 -0.20 dB -9.95 dB 7:02 04-Six Feet Under
DR8 -0.20 dB -10.17 dB 4:47 05-Invasion
DR7 -0.20 dB -8.60 dB 6:07 06-Breaking Bad
DR6 -0.20 dB -8.16 dB 4:21 07-Vingt-Trois
DR7 -0.20 dB -9.67 dB 5:24 08-18h09
--------------------------------------------------------------------------------
Number of tracks: 8
Official DR value: DR7
Samplerate: 44100 Hz
Channels: 2
Bits per sample: 16
Bitrate: 878 kbps
Codec: FLAC
================================================================================
2014) 03 [Soleil Mutant, SM 43]


Tracks:
01. Experimentation Speciale [06:09.227]
02. Bossa Yakuza [05:26.253]
03. La Menace [05:01.053]
04. Open Cluster [06:26.333]
05. Orient Express [08:46.253]
06. Contagion [14:14.347]
07. Prelude Engloute {*} [04:54.960]
08. Turbulence {*} [05:49.000]
09. Dissonata {*} [09:03.533]

Line-up:
François Thollot — bass, keyboards programming; drums (7–9)
Maxime Mantovani — guitar
Renaud Vernet — saxophone
Clement Curaudeau — drums

with (7–9):
Jérémy Van Quackebeke — piano
Anthony Maury — bass
Fabienne Désroches — hurdy-gurdy
Amelie Bouar — cello


Отчёт EAC

Exact Audio Copy V1.0 beta 3 from 29. August 2011
Отчёт EAC об извлечении, выполненном 14. марта 2015, 19:34
SCHERZOO / 03
Дисковод: TSSTcorpCDDVDW SH-224DB Adapter: 4 ID: 1
Режим чтения : Достоверность
Использование точного потока : Да
Отключение кэша аудио : Да
Использование указателей C2 : Нет
Коррекция смещения при чтении : 6
Способность читать области Lead-in и Lead-out : Нет
Заполнение пропущенных сэмплов тишиной : Да
Удаление блоков с тишиной в начале и конце : Нет
При вычислениях CRC использовались нулевые сэмплы : Да
Интерфейс : Встроенный Win32-интерфейс для Win NT/2000
Выходной формат : Внутренние WAV-операции
Формат сэмплов : 44.100 Гц; 16 бит; стерео
TOC извлечённого CD
Трек | Старт | Длительность | Начальный сектор | Конечный сектор
---------------------------------------------------------------------
1 | 0:00.00 | 6:09.17 | 0 | 27691
2 | 6:09.17 | 5:26.19 | 27692 | 52160
3 | 11:35.36 | 5:01.04 | 52161 | 74739
4 | 16:36.40 | 6:26.25 | 74740 | 103714
5 | 23:02.65 | 8:46.19 | 103715 | 143183
6 | 31:49.09 | 14:16.26 | 143184 | 207409
7 | 46:05.35 | 4:54.72 | 207410 | 229531
8 | 51:00.32 | 5:49.00 | 229532 | 255706
9 | 56:49.32 | 9:03.40 | 255707 | 296471
Характеристики диапазона извлечения и сообщения об ошибках
Выбранный диапазон
Имя файла D:\TEMP\SCHERZOO - 2014 - 03 [Soleil Mutant 43].wav
Пиковый уровень 94.3 %
Скорость извлечения 8.0 X
Качество диапазона 100.0 %
CRC теста A101D9B0
CRC копии A101D9B0
Копирование... OK
Ошибок не произошло
AccurateRip: сводка
Трек 1 отсутствует в базе данных
Трек 2 отсутствует в базе данных
Трек 3 отсутствует в базе данных
Трек 4 отсутствует в базе данных
Трек 5 отсутствует в базе данных
Трек 6 отсутствует в базе данных
Трек 7 отсутствует в базе данных
Трек 8 отсутствует в базе данных
Трек 9 отсутствует в базе данных
Ни одного трека нет в базе AccurateRip
Конец отчёта
==== Контрольная сумма отчёта 8C3EF63BD3BDAF354CAEA42CD9FD1C62D6E19F743C192CCB28DDF84D8E5A261C ====
CUE-файл для проигрывания (для WAV также имеется)

REM GENRE "Progressive Rock/Zeuhl"
REM DATE 2014
REM DISCID 830F7009
REM COMMENT "ExactAudioCopy v1.0b3"
PERFORMER "SCHERZOO"
TITLE "03"
FILE "SCHERZOO - 2014 - 03 [Soleil Mutant 43].flac" WAVE
TRACK 01 AUDIO
TITLE "Experimentation Speciale"
PERFORMER "SCHERZOO"
INDEX 01 00:00:00
TRACK 02 AUDIO
TITLE "Bossa Yakuza"
PERFORMER "SCHERZOO"
INDEX 01 06:09:17
TRACK 03 AUDIO
TITLE "La Menace"
PERFORMER "SCHERZOO"
INDEX 01 11:35:36
TRACK 04 AUDIO
TITLE "Open Cluster"
PERFORMER "SCHERZOO"
INDEX 01 16:36:40
TRACK 05 AUDIO
TITLE "Orient Express"
PERFORMER "SCHERZOO"
INDEX 01 23:02:65
TRACK 06 AUDIO
TITLE "Contagion"
PERFORMER "SCHERZOO"
INDEX 01 31:49:09
TRACK 07 AUDIO
TITLE "Prelude Engloute [*]"
PERFORMER "SCHERZOO"
INDEX 00 46:03:35
INDEX 01 46:05:35
TRACK 08 AUDIO
TITLE "Turbulence [*]"
PERFORMER "SCHERZOO"
INDEX 01 51:00:32
TRACK 09 AUDIO
TITLE "Dissonata [*]"
PERFORMER "SCHERZOO"
INDEX 01 56:49:32
Матрица CD
Динамический диапазон

foobar2000 1.3.17 / Dynamic Range Meter 1.1.1
log date: 2018-03-29 20:17:47
--------------------------------------------------------------------------------
Analyzed: SCHERZOO / 03
--------------------------------------------------------------------------------
DR Peak RMS Duration Track
--------------------------------------------------------------------------------
DR10 -0.50 dB -12.03 dB 6:09 01-Experimentation Speciale
DR11 -0.50 dB -13.15 dB 5:26 02-Bossa Yakuza
DR11 -0.50 dB -12.82 dB 5:01 03-La Menace
DR10 -0.50 dB -12.11 dB 6:26 04-Open Cluster
DR10 -0.50 dB -12.30 dB 8:46 05-Orient Express
DR9 -0.50 dB -12.08 dB 14:16 06-Contagion
DR12 -1.10 dB -17.83 dB 4:55 07-Prelude Engloute [*]
DR9 -1.10 dB -13.15 dB 5:49 08-Turbulence [*]
DR10 -1.10 dB -13.54 dB 9:04 09-Dissonata [*]
--------------------------------------------------------------------------------
Number of tracks: 9
Official DR value: DR10
Samplerate: 44100 Hz
Channels: 2
Bits per sample: 16
Bitrate: 797 kbps
Codec: FLAC
================================================================================
2018) 04 [Soleil Mutant, SM 53]


Tracks:
01. Three-Dimensional Disorder [04:45.133]
02. Kangouroo [04:18.880]
03. Crime et Châtiment [06:12.467]
04. Chat Badin [02:59.627]
05. Vingt-Cinq [05:38.000]
06. L’Instabilité de Kelvin-Helmholtz [04:31.133]
07. Funambule [06:26.133]
08. Vortex [08:51.800]

Line-up:
François Thollot — bass
Anthony Pontet — electric piano, organ
Grégoire Plancher — electric piano, mellotron
Clément Curaudeau — drums


Отчёт EAC

Exact Audio Copy V1.3 from 2. September 2016
Отчёт EAC об извлечении, выполненном 22. сентября 2018, 14:57
SCHERZOO / 04
Дисковод: TSSTcorpCDDVDW SH-224DB Adapter: 1 ID: 0
Режим чтения : Достоверность
Использование точного потока : Да
Отключение кэша аудио : Да
Использование указателей C2 : Нет
Коррекция смещения при чтении : 6
Способность читать области Lead-in и Lead-out : Нет
Заполнение пропущенных сэмплов тишиной : Да
Удаление блоков с тишиной в начале и конце : Нет
При вычислениях CRC использовались нулевые сэмплы : Да
Интерфейс : Встроенный Win32-интерфейс для Win NT/2000
Выходной формат : Внутренние WAV-операции
Формат сэмплов : 44.100 Гц; 16 бит; стерео
TOC извлечённого CD
Трек | Старт | Длительность | Начальный сектор | Конечный сектор
---------------------------------------------------------------------
1 | 0:00.00 | 4:47.10 | 0 | 21534
2 | 4:47.10 | 4:20.66 | 21535 | 41100
3 | 9:08.01 | 6:14.35 | 41101 | 69185
4 | 15:22.36 | 3:01.47 | 69186 | 82807
5 | 18:24.08 | 5:40.00 | 82808 | 108307
6 | 24:04.08 | 4:33.10 | 108308 | 128792
7 | 28:37.18 | 6:28.10 | 128793 | 157902
8 | 35:05.28 | 8:51.60 | 157903 | 197787
Характеристики диапазона извлечения и сообщения об ошибках
Выбранный диапазон
Имя файла D:\TEMP\SCHERZOO - 2018 - 04 [Soleil Mutant 53].wav
Пиковый уровень 98.8 %
Скорость извлечения 2.6 X
Качество диапазона 100.0 %
CRC теста 8F43F052
CRC копии 8F43F052
Копирование... OK
Ошибок не произошло
AccurateRip: сводка
Трек 1 отсутствует в базе данных
Трек 2 отсутствует в базе данных
Трек 3 отсутствует в базе данных
Трек 4 отсутствует в базе данных
Трек 5 отсутствует в базе данных
Трек 6 отсутствует в базе данных
Трек 7 отсутствует в базе данных
Трек 8 отсутствует в базе данных
Ни одного трека нет в базе AccurateRip
Конец отчёта
==== Контрольная сумма отчёта 6E47CB164CCFCEFC1C3C90BFD6199F7B12AE7B5EAB771D0991208A1082288F88 ====
CUE-файл для проигрывания (для WAV также имеется)

REM GENRE "Progressive Rock/Zeuhl"
REM DATE 2018
REM DISCID 610A4D08
REM COMMENT "ExactAudioCopy v1.3"
PERFORMER "SCHERZOO"
TITLE "04"
FILE "SCHERZOO - 2018 - 04 [Soleil Mutant 53].flac" WAVE
TRACK 01 AUDIO
TITLE "Three-Dimensional Disorder"
PERFORMER "SCHERZOO"
INDEX 01 00:00:00
TRACK 02 AUDIO
TITLE "Kangouroo"
PERFORMER "SCHERZOO"
INDEX 00 04:45:10
INDEX 01 04:47:10
TRACK 03 AUDIO
TITLE "Crime et Châtiment"
PERFORMER "SCHERZOO"
INDEX 00 09:06:01
INDEX 01 09:08:01
TRACK 04 AUDIO
TITLE "Chat Badin"
PERFORMER "SCHERZOO"
INDEX 00 15:20:36
INDEX 01 15:22:36
TRACK 05 AUDIO
TITLE "Vingt-Cinq"
PERFORMER "SCHERZOO"
INDEX 00 18:22:08
INDEX 01 18:24:08
TRACK 06 AUDIO
TITLE "L’Instabilité de Kelvin-Helmholtz"
PERFORMER "SCHERZOO"
INDEX 00 24:02:08
INDEX 01 24:04:08
TRACK 07 AUDIO
TITLE "Funambule"
PERFORMER "SCHERZOO"
INDEX 00 28:35:18
INDEX 01 28:37:18
TRACK 08 AUDIO
TITLE "Vortex"
PERFORMER "SCHERZOO"
INDEX 00 35:03:28
INDEX 01 35:05:28
Матрица CD
Динамический диапазон

foobar2000 1.4 / Dynamic Range Meter 1.1.1
log date: 2018-09-22 19:57:35
--------------------------------------------------------------------------------
Analyzed: SCHERZOO / 04
--------------------------------------------------------------------------------
DR Peak RMS Duration Track
--------------------------------------------------------------------------------
DR9 -0.10 dB -10.34 dB 4:47 01-Three-Dimensional Disorder
DR8 -0.10 dB -9.51 dB 4:21 02-Kangouroo
DR9 -0.10 dB -10.26 dB 6:14 03-Crime et Châtiment
DR9 -0.10 dB -9.96 dB 3:02 04-Chat Badin
DR9 -0.10 dB -10.72 dB 5:40 05-Vingt-Cinq
DR8 -0.10 dB -9.77 dB 4:33 06-L’Instabilité de Kelvin-Helmholtz
DR8 -0.10 dB -9.93 dB 6:28 07-Funambule
DR9 -0.10 dB -10.82 dB 8:52 08-Vortex
--------------------------------------------------------------------------------
Number of tracks: 8
Official DR value: DR9
Samplerate: 44100 Hz
Channels: 2
Bits per sample: 16
Bitrate: 863 kbps
Codec: FLAC
================================================================================




Всех благодарю за внимание!
Download
Чтобы скачать .torrent файл необходима регистрация
Сайт не распространяет и не хранит электронные версии произведений, а лишь предоставляет доступ к создаваемому пользователями каталогу ссылок на торрент-файлы, которые содержат только списки хеш-сумм
[Профиль]  [ЛС] 
 

Копысов

Lossless Group

Стаж: 8 лет 9 месяцев

Сообщений: 880

Копысов · 15-Июн-18 12:34 (спустя 3 года 2 месяца, ред. 15-Июн-18 12:34)

[Цитировать] 

Спасибо, Константин за раздачу! К сведению: 25.07.2018 объявлен выход нового альбома "4" на японской Belle Antique: http://www.hmv.co.jp/en/artist_Scherzoo_000000000454805/item_4_8922834
[Профиль]  [ЛС] 

spAceLover

Lossless Group

Стаж: 9 лет 5 месяцев

Сообщений: 1548

spAceLover · 15-Июн-18 17:26 (спустя 4 часа, ред. 15-Июн-18 17:26)

[Цитировать] 

Конечно, слушать всем на здоровье!
На Belle (более точно Marquee) будет дороговато. Возможно всё-таки потом выйдет на Soleil Zeuhl, если эта фирма ещё не окончательно загнулась (не так давно исчезла их страница на Фейсбуке). Тогда, как написано на оф. сайте Scherzoo, релиз должен быть 1 сентября. За ситуацией слежу. Если не судьба, придётся брать японца.
Потом добавлю ещё два альбома F.Thollot.
[Профиль]  [ЛС] 

spAceLover

Lossless Group

Стаж: 9 лет 5 месяцев

Сообщений: 1548

spAceLover · 23-Сен-18 17:09 (спустя 3 месяца 7 дней)

[Цитировать] 

Торрент обновлён новым материалом и перезалит 23.09.2018.
У кого скачаны предыдущие альбомы Scherzoo, создайте в каталоге с папкой "SCHERZOO" новую папку "SCHERZOO & François THOLLOT", перенесите туда старую и перезагрузите торрент.
Можно поглощать: http://1.maintracker.org/forum/viewtopic.php?t=3227257
И есть где-то ещё одна не моя раздача другого альбома.
[Профиль]  [ЛС] 

Копысов

Lossless Group

Стаж: 8 лет 9 месяцев

Сообщений: 880

Копысов · 23-Сен-18 18:04 (спустя 55 мин.)

[Цитировать] 

Так как благодарность я уже здесь оставлял, напишу в сообщении - Константин, ты, как всегда, в авангарде! И поэтому еще раз - огромное СПАСИБО!
[Профиль]  [ЛС] 

вячеслав 12071969

Стаж: 6 лет 6 месяцев

Сообщений: 199

вячеслав 12071969 · 25-Сен-18 07:58 (спустя 1 день 13 часов)

[Цитировать] 

СПАСИБО! на одном дыхании слушается
[Профиль]  [ЛС] 
 
Ответить
Loading...
Error