Адрес РуТрекера для пользователей РФ - 11.MainTracker.org

Расскажи друзьям:  

[ATV 3] Враг внутри / The Enemy Within / Сезон: 1 / Серии: 1-4 из 10 (Ричард Дж. Льюис, Марк Пеллингтон, Маризоль Адлер, Лили Марийе) [2019, США, драма, WEB-DL (1080p)] MVO (Lostfilm) + Original + Sub (eng)

Страницы:  1

Ответить
Автор
Сообщение

itunestv

Top Loader 06* 4TB

Стаж: 5 лет 6 месяцев

Сообщений: 966

itunestv · 13-Мар-19 16:35 (1 месяц 12 дней назад, ред. 25-Мар-19 10:39)


Враг внутри / The Enemy Within / Сезон 1

Год выпуска: 2019
Страна: США
Жанр: драма
Продолжительность: 00:43:00
Перевод: Профессиональный (многоголосый закадровый) Lostfilm
Оригинальная аудиодорожка: Есть
Cубтитры: Русские (Forced), Английские (SDH)
Режиссёр: Ричард Дж. Льюис, Марк Пеллингтон, Маризоль Адлер, Лили Марийе
Сценарий: Тони Камерино, Кен Вудрафф, Дэвид Аппелбаум
Продюсер: Адам Брайтман, О’Ши Рид, Кен Вудрафф
Оператор: Фрэнк Принзи, Фрэнк Дж. ДеМарко, Джеймс Хокинсон
Композитор: The Haxan Cloak
Художник: Рик Батлер, Ричард Хувер, Рэндолл Ричардс
Монтаж: Майк Банас, Леон Мартин, Финниан Мюррэй
В ролях: Дженнифер Карпентер (Erica Shepherd), Моррис Честнат (Will Keaton), Келли Гарнер (Kate Ryan), Ной Миллс (Jason Bragg), Раза Джеффри (Daniel Zain), Кассандра Фриман (Jacqueline Pettigrew), Джеймс Карпинелло (Anthony Cabrera), Ной Бин (Christopher Shepherd), Корал Пенья (Anna Cruz), София Геннуса (Hannah Shepherd)
Описание: "Враг внутри" - это остросюжетный триллер канала NBC, повествующий о том, как опальный агент ЦРУ Эрика Шэпард, напоминающая современного Бенедикта Арнольда и Ганнибала Лектера одновременно, помогает ФБР в поисках и обезвреживании опасного террориста. Главную роль в сериале получила звезда "Декстера" Дженнифер Карпентер, а создателем проекта выступил Кен Вудрафф, приложивший руку к суперуспешному "Готэму". Во время работы над триллером Кен вдохновлялся такой классикой жанра, как "Молчание ягнят", а также шпионскими франшизами про Борна и невыполнимые миссии, поэтому зрители могут рассчитывать не только на взрывной экшен и зрелищные сцены погонь и перестрелок, но и на полные психологизма интеллектуальные игры самых опасных и непредсказуемых мастеров своего дела по обе стороны закона. А тот факт, что в центре сюжета оказалась женщина, только добавляет сериалу напряженности и остроты.
Сюжет: Несколько лет назад Эрика Шэпард (Дженнифер Карпентер) работала в ЦРУ, где ее считали гением. На эту девушку, которая, как Шерлок, могла по мельчайшим деталям увидеть и понять больше остальных, равнялись все коллеги. Теперь же она сидит в тюрьме, в стеклянной клетке, как Ганнибал Лектер, к ней не пускают близких, и надежд когда-нибудь вновь увидеть свою дочь у Эрики тоже нет. В этом виноват террорист по имени Михаил Тал (Алекс Фельдман), который вынудил ее сдать нескольких своих коллег, и теперь на ней лежит неподъемный груз ответственности за их смерти, а призраки этих людей преследуют бывшую супершпионку каждый день. Более того, для всей страны Шэпард стала врагом номер один, этаким аналогом печально известного предателя Америки Бенедикта Арнольда. Между тем Тал продолжает свою подрывную деятельность и после очередного теракта ФБР оказывается в тупике. И выясняется, что единственной, кто способен им помочь выйти на след Михаила, является Эрика, чью жизнь он разрушил. Именно она знает его лучше всех, именно у нее есть мотив помочь коллегам, ведь пока Тал на свободе, жизнь ее дочки все еще в опасности, да и шанс очистить свое имя хоть и призрачный, но все же имеется. Эрике вживляют под кожу чип, чтобы отслеживать ее перемещения, и прикрепляют ее к агенту Китону (Моррис Честнат), который совсем не рад сотрудничеству, поскольку по вине Шэпард погибла и его невеста. Так ФБР начинает новую охоту на старого врага. Тем временем сам Тал с неясной пока целью готовит сеть хорошо подготовленных агентов, которых в городах Америки становится все больше. По сути, это бомбы замедленного действия, запустить которые может только Михаил, а остановить его - только Эрика...

Качество: WEB-DL 1080p (iTunes US)
Контейнер: M4V
Видео: H.264/AVC, 1920x1080p (1.78:1), 23.976 fps, ~5166 kbps, ~0.104 bit/pixel
Аудио №1: Русский LC-AAC 2.0, 48 kHz, 126 kbps
Аудио №2: Русский AC3 5.1, 48 kHz, 384 kbps
Аудио №3: Английский LC-AAC 2.0, 48 kHz, 151 kbps
Аудио №4: Английский AC3 5.1, 48 kHz, 384 kbps
Субтитры  №1: Русские: TX3G
Субтитры  №2: Английские- SDH для глухих: TX3G
Реклама: отсутствует
Враг внутри, 1
The Enemy Within, Season 1
Список серий
Код:
01. Pilot (2019-02-25) / Пилот (12.03.2019 13:42:24) - (00:43:42)
02. Black Bear (2019-03-04) / Бурый барибал (16.03.2019 20:54:11) - (00:42:57)
03. The Ambassador's Wife (2019-03-11) / Жена посла (18.03.2019 21:05:56) - (00:42:27)
04. Confessions (2019-03-18) / Признания (21.03.2019 12:55:37)
05. Havana (2019-03-25)
06. Eye Of Horus (2019-04-01)
07. Episode 7 (2019-04-08)
08. Episode 8 (2019-04-15)
09. Homecoming (2019-04-22)
iTunes Meta Tags
Код:
Name: Pilot
Sort Name: Pilot
Artist: The Enemy Within
Sort Artist: The Enemy Within
Release Date: 2019-02-25T08:00:00Z
Album: The Enemy Within, Season 1
Sort Album: The Enemy Within, Season 1
Track: 1 of 10
Disk: 1 of 1
Genre: Drama
Cover Art pieces: 1
Album Artist: The Enemy Within
Copyright: В© 2019 Universal Television LLC ALL RIGHTS RESERVED
Content Rating: None
HD Video: yes
Media Type: TV Show
TV Show: The Enemy Within
TV Episode Number: I7201
Short Description: This character-driven investigative thriller set in the world of counterintelligence focuses on
Long Description: This character-driven investigative thriller set in the world of counterintelligence focuses on former CIA agent Erica Shepherd (Jennifer Carpenter), now known as one of the most notorious traitors in recent American history. Shepherd is brought out of a federal Supermax prison by FBI Agent Will Keaton (Morris Chestnut) to help stop some of the most dangerous acts of espionage threatening the United States today. Also starring Raza Jaffrey, Kelli Garner and Noah Mills.
TV Episode: 1
TV Season: 1
Content ID: 1452931003
Artist ID: 1450562698
Playlist ID: 1450562699
Genre ID: 4001
xid: NBCUniversal:vendor_id:NBC_ENEMYWITHIN_I7201
iTunes Store Country: United States
MediaInfo
Код:
General
Complete name                            : The Enemy Within\Season 1\01 Pilot (1080p HD).m4v
Format                                   : MPEG-4
Codec ID                                 : M4V  (M4V /mp42/isom)
File size                                : 1.90 GiB
Duration                                 : 43 min 42 s
Overall bit rate mode                    : Variable
Overall bit rate                         : 6 221 kb/s
Collection                               : The Enemy Within
Season                                   : 1
Album                                    : The Enemy Within, Season 1
Album/Sorted by                          : The Enemy Within, Season 1
Album/Performer                          : The Enemy Within
Part                                     : 1
Part/Position                            : 1
Part/Total                               : 1
Track name                               : Pilot
Track name/Position                      : 1
Track name/Total                         : 10
Performer                                : The Enemy Within
Performer/Sorted by                      : The Enemy Within
Genre                                    : Drama
ContentType                              : TV Show
Description                              : This character-driven investigative thriller set in the world of counterintelligence focuses on / In this character-based psychological thriller, Erica Shepherd (Jennifer Carpenter) is a brilliant former CIA operative, now known as one of the most notorious traitors in recent American history serving life in a Supermax prison. Against every fiber of his being but with nowhere else to turn, FBI Agent Will Keaton (Morris Chestnut) enlists Shepherd to help track down a fiercely dangerous and elusive criminal she knows all too well. While Shepherd and Keaton have different motivations for bringing the enemy to justice, they both know that to catch a spy... they must think like one.
Recorded date                            : UTC 2019-02-25 08:00:00
Encoded date                             : UTC 2019-02-25 02:14:36
Tagged date                              : UTC 2019-02-25 02:14:47
Copyright                                : В© 2019 Universal Television LLC ALL RIGHTS RESERVED
Cover                                    : Yes
Rating                                   : None
AppleStoreCatalogID                      : 1452931003
AlbumTitleID                             : 1450562698
PlayListID                               : 1450562699
GenreID                                  : 4001
Part_ID                                  : I7201
Title/Sort                               : Pilot
ContentRating                            : us-tv|TV-14|500|
LongDescription                          : This character-driven investigative thriller set in the world of counterintelligence focuses on former CIA agent Erica Shepherd (Jennifer Carpenter), now known as one of the most notorious traitors in recent American history. Shepherd is brought out of a federal Supermax prison by FBI Agent Will Keaton (Morris Chestnut) to help stop some of the most dangerous acts of espionage threatening the United States today. Also starring Raza Jaffrey, Kelli Garner and Noah Mills.
Vendor                                   : NBCUniversal:vendor_id:NBC_ENEMYWITHIN_I7201
Flavour                                  : 18:1080p
AppleStoreCountry                        : United States
Video
ID                                       : 1
Format                                   : AVC
Format/Info                              : Advanced Video Codec
Format profile                           : [email protected]
Format settings                          : CABAC / 4 Ref Frames
Format settings, CABAC                   : Yes
Format settings, RefFrames               : 4 frames
Codec ID                                 : avc1
Codec ID/Info                            : Advanced Video Coding
Duration                                 : 43 min 42 s
Bit rate                                 : 5 166 kb/s
Maximum bit rate                         : 12.9 Mb/s
Width                                    : 1 920 pixels
Height                                   : 1 080 pixels
Display aspect ratio                     : 16:9
Frame rate mode                          : Constant
Frame rate                               : 23.976 (23976/1000) FPS
Color space                              : YUV
Chroma subsampling                       : 4:2:0
Bit depth                                : 8 bits
Scan type                                : Progressive
Bits/(Pixel*Frame)                       : 0.104
Stream size                              : 1.58 GiB (83%)
Title                                    : Core Media Video
Language                                 : English
Encoded date                             : UTC 2019-02-25 02:14:36
Tagged date                              : UTC 2019-02-25 02:14:47
Color range                              : Limited
Color primaries                          : BT.709
Transfer characteristics                 : BT.709
Matrix coefficients                      : BT.709
Audio #1
ID                                       : 2
Format                                   : AAC
Format/Info                              : Advanced Audio Codec
Format profile                           : LC
Codec ID                                 : mp4a-40-2
Duration                                 : 43 min 42 s
Bit rate mode                            : Variable
Bit rate                                 : 126 kb/s
Maximum bit rate                         : 181 kb/s
Channel(s)                               : 2 channels
Channel positions                        : Front: L R
Sampling rate                            : 48.0 kHz
Frame rate                               : 46.875 FPS (1024 SPF)
Compression mode                         : Lossy
Stream size                              : 39.4 MiB (2%)
Title                                    : Core Media Audio
Language                                 : Russian
Default                                  : Yes
Alternate group                          : 1
Encoded date                             : UTC 2019-03-12 13:42:24
Tagged date                              : UTC 2019-03-12 13:42:24
Fallback From                            : 3
Subtitles                                : 6
tagc                                     : public.translation.voice-over
Audio #2
ID                                       : 3
Format                                   : AC-3
Format/Info                              : Audio Coding 3
Format settings, Endianness              : Big
Codec ID                                 : ac-3
Duration                                 : 43 min 42 s
Bit rate mode                            : Constant
Bit rate                                 : 384 kb/s
Maximum bit rate                         : 406 kb/s
Channel(s)                               : 6 channels
Channel positions                        : Front: L C R, Side: L R, LFE
Sampling rate                            : 48.0 kHz
Frame rate                               : 31.250 FPS (1536 SPF)
Bit depth                                : 16 bits
Compression mode                         : Lossy
Stream size                              : 120 MiB (6%)
Title                                    : Core Media Audio
Language                                 : Russian
Service kind                             : Complete Main
Default                                  : Inherited From: 2
Alternate group                          : 1
Encoded date                             : UTC 2019-03-12 13:42:24
Tagged date                              : UTC 2019-03-12 13:42:24
Fallback To                              : 2
Subtitles                                : 6
tagc                                     : public.translation.voice-over
Audio #3
ID                                       : 4
Format                                   : AAC
Format/Info                              : Advanced Audio Codec
Format profile                           : LC
Codec ID                                 : mp4a-40-2
Duration                                 : 43 min 42 s
Bit rate mode                            : Variable
Bit rate                                 : 151 kb/s
Maximum bit rate                         : 255 kb/s
Channel(s)                               : 2 channels
Channel positions                        : Front: L R
Sampling rate                            : 48.0 kHz
Frame rate                               : 46.875 FPS (1024 SPF)
Compression mode                         : Lossy
Stream size                              : 47.2 MiB (2%)
Title                                    : Core Media Audio
Language                                 : English
Default                                  : No
Alternate group                          : 1
Encoded date                             : UTC 2019-02-25 02:14:36
Tagged date                              : UTC 2019-02-25 02:14:47
Fallback From                            : 5
Audio #4
ID                                       : 5
Format                                   : AC-3
Format/Info                              : Audio Coding 3
Format settings, Endianness              : Big
Codec ID                                 : ac-3
Duration                                 : 43 min 42 s
Bit rate mode                            : Constant
Bit rate                                 : 384 kb/s
Channel(s)                               : 6 channels
Channel positions                        : Front: L C R, Side: L R, LFE
Sampling rate                            : 48.0 kHz
Frame rate                               : 31.250 FPS (1536 SPF)
Bit depth                                : 16 bits
Compression mode                         : Lossy
Stream size                              : 120 MiB (6%)
Title                                    : Core Media Audio
Language                                 : English
Service kind                             : Complete Main
Default                                  : No
Alternate group                          : 1
Encoded date                             : UTC 2019-02-25 02:14:36
Tagged date                              : UTC 2019-02-25 02:14:47
Fallback To                              : 4
Text #1
ID                                       : 6
Format                                   : Timed Text
Muxing mode                              : sbtl
Codec ID                                 : tx3g
Duration                                 : 33 min 36 s
Bit rate mode                            : Variable
Bit rate                                 : 6 b/s
Stream size                              : 1.46 KiB (0%)
Title                                    : Core Media Subtitle
Language                                 : Russian
Default                                  : Yes
Forced                                   : Yes
Alternate group                          : 2
Encoded date                             : UTC 2019-02-25 02:14:36
Tagged date                              : UTC 2019-02-25 02:14:47
Subtitles For                            : 2,3
tagc                                     : public.subtitles.forced-only
Text #2
ID                                       : 7
Format                                   : Timed Text
Muxing mode                              : sbtl
Codec ID                                 : tx3g
Duration                                 : 43 min 15 s
Bit rate mode                            : Variable
Bit rate                                 : 77 b/s
Stream size                              : 24.4 KiB (0%)
Title                                    : Core Media Subtitle
Language                                 : English
Default                                  : No
Forced                                   : No
Alternate group                          : 2
Encoded date                             : UTC 2019-02-25 02:14:36
Tagged date                              : UTC 2019-02-25 02:14:47
tagc                                     : public.accessibility.transcribes-spoken-dialog
Скриншоты
Релиз подготовлен для просмотра на Apple TV, iPad, iPhone, iPod Touch.
Download
Чтобы скачать .torrent файл необходима регистрация
Сайт не распространяет и не хранит электронные версии произведений, а лишь предоставляет доступ к создаваемому пользователями каталогу ссылок на торрент-файлы, которые содержат только списки хеш-сумм
[Профиль]  [ЛС] 
 

Painkiller0909

Стаж: 4 года 1 месяц

Сообщений: 1069

Painkiller0909 · 14-Мар-19 12:38 (спустя 20 часов)

[Цитировать] 

кто посмотрел отпишитесь как оно
[Профиль]  [ЛС] 

itunestv

Top Loader 06* 4TB

Стаж: 5 лет 6 месяцев

Сообщений: 966

itunestv · 19-Мар-19 11:39 (спустя 4 дня, ред. 19-Мар-19 11:39)

[Цитировать] 

+02. Black Bear (2019-03-04) / Бурый барибал (16.03.2019 20:54:11)
+03. The Ambassador's Wife (2019-03-11) / Жена посла (18.03.2019 21:05:56)
[Профиль]  [ЛС] 

itunestv

Top Loader 06* 4TB

Стаж: 5 лет 6 месяцев

Сообщений: 966

itunestv · 25-Мар-19 10:39 (спустя 5 дней)

[Цитировать] 

+04. Confessions (2019-03-18) / Признания (21.03.2019 12:55:37)
[Профиль]  [ЛС] 
 
Ответить
Loading...
Error