Адрес РуТрекера для пользователей РФ - 11.MainTracker.org

Расскажи друзьям:  

Адрес РуТрекера для пользователей РФ - 11.MainTracker.org

Расскажи друзьям:  

Селеста / Celeste / Серии: 001-172 (Николас Дель Бока) [1991, Аргентина, Мелодрама, SATRip]

Страницы:  1
Ответить
Автор
Сообщение

vitalydoom54

Стаж: 11 лет 11 месяцев

Сообщений: 8

vitalydoom54 · 04-Дек-16 19:24 (2 года 10 месяцев назад, ред. 15-Дек-16 10:30)

Селеста / Celeste
Год выпуска: 1991
Страна: Аргентина
Производство: Sonotex
Жанр: Мелодрама
Серии (количество): 172
Продолжительность: ~ 45 минут
Перевод: Профессиональный многоголосый закадровый Ren-tv + РТР
Перевод: Оригинал Испанская звуковая дорожка
Субтитры: отсутствуют
Режиссёр: Николас Дель Бока
В ролях: Андреа дель Бока, Густаво Бермудес, Дора Барет, Герман Паласиос, Артуро Мали, Андреа Бонелли, Родольфо Мачадо, Патрисия Кастель, Густаво Рэй, Вивиана Сакконе, Роберто Фиоре, Грасиэла Паль
Описание: Селеста, молодая провинциальная девушка, знакомится с Франко, и вскоре молодые люди понимают, что любят друг друга. В знак своей любви они сажают дерево и клянутся в верности, но преградой служит Рамиро, парень, влюбленный в Селесту, который должен был стать её мужем. Вскоре умирает больная мать Селесты, и Аида, подруга её матери, приводит девушку в дом своего брата Леандро, где Тереса, его жена, принимает девушку за новую горничную, кем она и становится. Селеста продолжает встречаться с Франко, который оказывается младшим сыном Тересы и Леандро, а к ней начинает приставать Энцо, их старший ребенок.
Здесь же Селеста знакомится с Ритой, сестрой своего возлюбленного, и её мужем Даниэлем, которым для счастья не хватает лишь одного — собственного ребенка. Тереса поддерживает постоянную любовную связь с Бруно, гинекологом, владеющим собственной клиникой, которую подарила ему Тереса; но в то же время он женат на Сильване. Вскоре Селеста понимает, что ждет ребенка от Франко. Поначалу она безумно счастлива этому, но, услышав, разговор Рамона и Леандро, она узнает, что является дочерью Леандро и беременна от своего брата. Селеста решает рожать ребенка, но говорит всем, что это ребенок Рамиро. Беременность служанки — шанс для Тересы получить наконец внука и богатое наследство. Они с Бруно обдумывают план, в соответствии с которым Рита уезжает из дома, а после рождения малыша они отдают его Рите и её супругу, сказав Селесте, что её ребенок умер.
В жизни Селесты единственной радостью остается забота о ребенке своей сестры Риты. Однако материнское чувство слишком сильно, чтобы её предать, и вскоре Селеста понимает, что этот ребенок её. Рита же оказывается не в состоянии контролировать свои чувства и давление со стороны матери и постепенно теряет контроль над собой. Даниэль начинает шантажировать тещу, угрожая рассказать Селесте правду о
Доп. информация: Некоторые серий не переведены а на русской звуковой дорожке где пропуски взяты с оригинала испанский также есть папка Пропуски там пропуски видео которое не вошло в версию от Telefe
Сэмпл: http://multi-up.com/1129623
Ссылка на предыдущие и альтернативные раздачи:
Тут Можно посмотреть: http://1.maintracker.org/forum/tracker.php?f=911&nm=%D1%E5%EB%E5%F1%F2%E0
Тут Можно посмотреть: http://1.maintracker.org/forum/tracker.php?f=1574&nm=%D1%E5%EB%E5%F1%F2%E0
Качество: SATRip
Формат: MP4
Видео кодек: H.264
Аудио кодек: AAC
Видео: Advanced Video Coding 656х480, 25000 fps, ~ 700 kbps
Аудио: Advanced Audio Codec - 48.0 KHz, 2 ch, 128 Kbps
Аудио 2: Advanced Audio Codec - 48.0 KHz, 2 ch, 128 Kbps
MI
Video
ID : 1
Format : AVC
Format/Info : Advanced Video Codec
Format profile : Main@L3
Format settings, CABAC : Yes
Format settings, ReFrames : 3 frames
Codec ID : avc1
Codec ID/Info : Advanced Video Coding
Duration : 45 min 38 s
Bit rate : 556 kb/s
Width : 656 pixels
Height : 480 pixels
Display aspect ratio : 4:3
Frame rate mode : Constant
Frame rate : 25.000 FPS
Color space : YUV
Chroma subsampling : 4:2:0
Bit depth : 8 bits
Scan type : Progressive
Bits/(Pixel*Frame) : 0.071
Stream size : 181 MiB (58%)
Audio #1
ID : 2
Format : AAC
Format/Info : Advanced Audio Codec
Format profile : LC
Codec ID : 40
Duration : 40 min 50 s
Bit rate mode : Constant
Bit rate : 128 kb/s
Channel(s) : 2 channels
Channel positions : Front: L R
Sampling rate : 44.1 kHz
Frame rate : 43.066 FPS (1024 spf)
Compression mode : Lossy
Stream size : 37.4 MiB (13%)
Title : Оригинальная испанская звуковая дорожка / Оригинальная испанская звуковая дорожка
Language : Spanish
Default : Yes
Alternate group : 1
Audio #2
ID : 3
Format : AAC
Format/Info : Advanced Audio Codec
Format profile : LC
Codec ID : 40
Duration : 40 min 50 s
Bit rate mode : Constant
Bit rate : 128 kb/s
Channel(s) : 2 channels
Channel positions : Front: L R
Sampling rate : 48.0 kHz
Frame rate : 46.875 FPS (1024 spf)
Compression mode : Lossy
Stream size : 37.4 MiB (13%)
Title : Профессиональный многоголосый закадровый Ren-tv + РТР / Профессиональный многоголосый закадровый Ren-tv + РТР
Language : Russian
Default : No
Alternate group : 1
Скриншоты
Download
Сайт не распространяет и не хранит электронные версии произведений, а лишь предоставляет доступ к создаваемому пользователями каталогу ссылок на торрент-файлы, которые содержат только списки хеш-сумм
Как скачивать? (для скачивания .torrent файлов необходима регистрация)
[Профиль]  [ЛС] 

Марилусинда Берганти

Стаж: 6 лет 10 месяцев

Сообщений: 31


Марилусинда Берганти · 06-Дек-16 22:26 (спустя 2 дня 3 часа)

за труд БОООЛЬШОООЕЕЕ СПАСИБО,а Селеста только Селеста будете выкладывать
[Профиль]  [ЛС] 

sha277

Стаж: 4 года 6 месяцев

Сообщений: 316


sha277 · 14-Дек-16 20:26 (спустя 7 дней)

Спасибо ВАМ большое за новые серии, за труд!!! Добавте, пожалуйста, скорость! С благодарностью!
[Профиль]  [ЛС] 

haruha

Стаж: 11 лет 5 месяцев

Сообщений: 7


haruha · 14-Май-17 16:21 (спустя 4 месяца 30 дней)

Помогите скачать! Те, кто скачал, пожалуйста, вернитесь на раздачу!!! Уже вторую неделю никакого сдвига (((
[Профиль]  [ЛС] 

Adrianna031280

Стаж: 5 лет 4 месяца

Сообщений: 25


Adrianna031280 · 03-Июн-17 12:46 (спустя 19 дней)

Скорости дайте, плиз... Не могу докачать сериал
[Профиль]  [ЛС] 

eternal gamer

Стаж: 9 лет 8 месяцев

Сообщений: 140

eternal gamer · 05-Май-19 15:34 (спустя 1 год 11 месяцев)

И мне скорости дайте пожалуйста. мама просила.
[Профиль]  [ЛС] 
 
Ответить
Loading...
Error