Адрес РуТрекера для пользователей РФ - 11.MainTracker.org

Расскажи друзьям:  

(Folk) [CD] Arlo Guthrie - Hobo's Rullaby - 1972, FLAC (image+.cue), lossless

Страницы:  1

Ответить
Автор
Сообщение

porkpiehat

Стаж: 7 лет 5 месяцев

Сообщений: 7


porkpiehat · 19-Апр-18 04:56 (1 год 2 месяца назад)

Arlo Guthrie / Hobo's Rullaby
Жанр: Folk
Носитель: CD
Страна-производитель диска (релиза): USA
Год издания: 1972
Издатель (лейбл): Warner Bros. Records
Номер по каталогу: KOC-CD-7951
Страна исполнителя (группы): USA
Аудиокодек: FLAC (*.flac)
Тип рипа: image+.cue
Битрейт аудио: lossless
Продолжительность: 00:38:03
Источник (релизер): self
Наличие сканов в содержимом раздачи: да
Треклист:
01. Anytime 1:50
02. The City of New Orleans 4:34
03. Lightning Bar Blues 2:52
04. Shackles and Chains 2:51
05. 1913 Massacre 4:20
06. Somebody Turned on the Light 3:19
07. Ukulele Lady 3:24
08. When the Ship Comes In 4:27
09. Mapleview (20%) Rag 2:08
10. Days Are Short 4:17
11. Hobo's Lullaby 3:57
Лог проверки качества
Exact Audio Copy V1.3 from 2. September 2016
EAC extraction logfile from 18. April 2018, 18:10
Arlo Guthrie / Hobo's Lullaby
Used drive : HL-DT-STDVDRAM GH24NS90 Adapter: 1 ID: 0
Read mode : Secure
Utilize accurate stream : Yes
Defeat audio cache : Yes
Make use of C2 pointers : Yes
Read offset correction : 6
Overread into Lead-In and Lead-Out : No
Fill up missing offset samples with silence : Yes
Delete leading and trailing silent blocks : No
Null samples used in CRC calculations : Yes
Used interface : Native Win32 interface for Win NT & 2000
Used output format : Internal WAV Routines
Sample format : 44.100 Hz; 16 Bit; Stereo
TOC of the extracted CD
Track | Start | Length | Start sector | End sector
---------------------------------------------------------
1 | 0:00.00 | 1:50.37 | 0 | 8286
2 | 1:50.37 | 4:34.38 | 8287 | 28874
3 | 6:25.00 | 2:52.50 | 28875 | 41824
4 | 9:17.50 | 2:51.25 | 41825 | 54674
5 | 12:09.00 | 4:20.00 | 54675 | 74174
6 | 16:29.00 | 3:19.00 | 74175 | 89099
7 | 19:48.00 | 3:24.00 | 89100 | 104399
8 | 23:12.00 | 4:27.37 | 104400 | 124461
9 | 27:39.37 | 2:08.25 | 124462 | 134086
10 | 29:47.62 | 4:17.13 | 134087 | 153374
11 | 34:05.00 | 3:58.22 | 153375 | 171246
Range status and errors
Selected range
Filename C:\Users\porkp\Documents\Arlo Guthrie - Hobo's Lullaby.wav
Peak level 100.0 %
Extraction speed 3.8 X
Range quality 100.0 %
Copy CRC 1A977C39
Copy OK
No errors occurred
AccurateRip summary
Track 1 accurately ripped (confidence 7) [9F86DCE3] (AR v2)
Track 2 accurately ripped (confidence 7) [0A9BD5C6] (AR v2)
Track 3 accurately ripped (confidence 7) [8DF5D579] (AR v2)
Track 4 accurately ripped (confidence 7) [388163E2] (AR v2)
Track 5 accurately ripped (confidence 7) [1508E9D0] (AR v2)
Track 6 accurately ripped (confidence 7) [94A8856A] (AR v2)
Track 7 accurately ripped (confidence 7) [2D482C0F] (AR v2)
Track 8 accurately ripped (confidence 8) [325C8491] (AR v2)
Track 9 accurately ripped (confidence 8) [D91EECAA] (AR v2)
Track 10 accurately ripped (confidence 8) [04261C61] (AR v2)
Track 11 accurately ripped (confidence 8) [2B036D03] (AR v2)
All tracks accurately ripped
End of status report
---- CUETools DB Plugin V2.1.6
[CTDB TOCID: e86tbtCiG5Q3BzW9tz3HpOZVFVM-] found
Submit result: e86tbtCiG5Q3BzW9tz3HpOZVFVM- has been confirmed
Track | CTDB Status
1 | (15/15) Accurately ripped
2 | (15/15) Accurately ripped
3 | (15/15) Accurately ripped
4 | (15/15) Accurately ripped
5 | (15/15) Accurately ripped
6 | (15/15) Accurately ripped
7 | (15/15) Accurately ripped
8 | (15/15) Accurately ripped
9 | (14/15) Accurately ripped
10 | (15/15) Accurately ripped
11 | (15/15) Accurately ripped
Download
Чтобы скачать .torrent файл необходима регистрация
Сайт не распространяет и не хранит электронные версии произведений, а лишь предоставляет доступ к создаваемому пользователями каталогу ссылок на торрент-файлы, которые содержат только списки хеш-сумм
[Профиль]  [ЛС] 
 

Ready.zp

Moderator

Стаж: 10 лет 9 месяцев

Сообщений: 5374

Ready.zp · 19-Апр-18 10:48 (спустя 5 часов)

porkpiehat писал(а):
75204071Make use of C2 pointers : Yes
# сомнительно
[Профиль]  [ЛС] 

thailair

Стаж: 11 лет 3 месяца

Сообщений: 9


thailair · 20-Июн-19 18:09 (спустя 1 год 2 месяца)

опечатка в названии
[Профиль]  [ЛС] 
 
Ответить
Loading...
Error