Адрес РуТрекера для пользователей РФ - 11.MainTracker.org

Расскажи друзьям:  

Кубок африканских наций 2019 / Africa Cup of Nations / Плей-офф / Матч за 3-е место / Тунис - Нигерия / Tunisia - Nigeria / beIN sports HD [17.07.2019, Футбол, IPTVRip/720p/60fps, MKV/H.264, EN]

Страницы:  1
Ответить
Автор
Сообщение

MyNameIsTurkish

Top Bonus 04* 3TB

Стаж: 10 лет 1 месяц

Сообщений: 211

MyNameIsTurkish · 18-Июл-19 00:25 (1 месяц назад, ред. 18-Июл-19 01:07)

Кубок африканских наций 2019 / Africa Cup of Nations / Плей-офф / Матч за 3-е место / Тунис - Нигерия / Tunisia - Nigeria
Вид спорта: Футбол
Дата/Год выпуска: 17.07.2019
Язык комментариев: Английский/English
Описание: Стадион: Аль-Салам (Каир, Египет), вместимость: 30000.
Главный судья: Геад Гриша (Египет); Ассистент: Махмуд Або Эль-Регаль (Египет); Ассистент: Исса Яя (Чад); Резервный: Джошуа Бондо (Ботсвана)
Автор рипа/записи: MyNameIsTurkish
Доп. информация: Есть небольшие проблемы с трансляцией в середине второго тайма, пропущено около 6 минут за время смены потока.
Missing 6 minutes of second half while changing feeds.
Реклама вырезана, есть небольшая вставка во время студии в перерыве.

Качество: IPTVRip
Формат видео: MKV
Видео: AVC/H.264, 1280x720, 60 fps, 4372 kb/s
Аудио: AAC, stereo, 48000 Hz, 125 kb/s
Продолжительность
01:37:48
Составы
Тунис
22 вр Моэз Бен-Черифиа
21 зщ Нассим Хнид
5 зщ Уссама Хаддади
4 зщ Яссин Мерия
14 пз Мохамед Дрегер
17 пз Эйе Скири
20 пз Гилане Шалали
13 пз Фержани Сасси
9 нп Анис Бадри
10 нп Вахби Хазри
11 нп Таха Хенисси
Нигерия
23 вр Фрэнсис Узохо
22 зщ Кеннет Омеруо
2 зщ Ола Эйна
3 зщ Джамилу Коллинс
5 зщ Виллиам Трост-Эконг
8 пз Одженекаро Этебо
18 пз Алекс Айуоби
4 пз Онинье Ндиди
13 пз Самуэль Чуквезе
9 нп Одион Игало
7 нп Ахмед Муса
Счёт/Итог
0:1
Скриншоты
Download
Сайт не распространяет и не хранит электронные версии произведений, а лишь предоставляет доступ к создаваемому пользователями каталогу ссылок на торрент-файлы, которые содержат только списки хеш-сумм
Как скачивать? (для скачивания .torrent файлов необходима регистрация)
[Профиль]  [ЛС] 
 

MyNameIsTurkish

Top Bonus 04* 3TB

Стаж: 10 лет 1 месяц

Сообщений: 211

MyNameIsTurkish · 18-Июл-19 00:30 (спустя 4 мин.)

Если модераторы увидят и пропустят , то успею раздать сегодня, иначе только завтра ближе к обеду по мск.
[Профиль]  [ЛС] 

Вайделот

Moderator gray

Стаж: 9 лет 6 месяцев

Сообщений: 5358

Вайделот · 18-Июл-19 00:39 (спустя 8 мин., ред. 18-Июл-19 00:40)

MyNameIsTurkish писал(а):
77686140Если модераторы увидят и пропустят , то успею раздать сегодня, иначе только завтра ближе к обеду по мск.
Ну давайте поглядим что у вас там внутри. Открыто, раздавайте. Спасибо.
И битрейт аудио добавьте, пожалуйста.
[Профиль]  [ЛС] 

MyNameIsTurkish

Top Bonus 04* 3TB

Стаж: 10 лет 1 месяц

Сообщений: 211

MyNameIsTurkish · 18-Июл-19 00:45 (спустя 6 мин.)

Вайделот писал(а):
77686162
MyNameIsTurkish писал(а):
77686140Если модераторы увидят и пропустят , то успею раздать сегодня, иначе только завтра ближе к обеду по мск.
Ну давайте поглядим что у вас там внутри. Открыто, раздавайте. Спасибо.
И битрейт аудио добавьте, пожалуйста.
Поправил , Media Info его отдельно не отображает , пришлось вычитать из общего битрейта битрейт видео , не уверен что так корректо, но что есть.
Раздаю на 100 мбит/с
[Профиль]  [ЛС] 

Вайделот

Moderator gray

Стаж: 9 лет 6 месяцев

Сообщений: 5358

Вайделот · 18-Июл-19 01:26 (спустя 40 мин., ред. 18-Июл-19 01:27)

MyNameIsTurkish
На данный момент это не критично. Завтра гляну, а то спать охота)
МИ все показывает.
MI
Формат : Matroska
Версия формата : Version 4 / Version 2
Размер файла : 3,07 Гбайт
Продолжительность : 1 ч. 37 м.
Общий поток : 4495 Кбит/сек
Дата кодирования : UTC 2019-07-17 22:08:49
Программа кодирования : mkvmerge v26.0.0 ('In The Game') 64-bit
Библиотека кодирования : libebml v1.3.6 + libmatroska v1.4.9
Видео
Идентификатор : 1
Формат : AVC
Формат/Информация : Advanced Video Codec
Профиль формата : [email protected]
Настройки формата : CABAC / 4 Ref Frames
Параметр CABAC формата : Да
Параметр ReFrames формата : 4 кадра
Идентификатор кодека : V_MPEG4/ISO/AVC
Продолжительность : 1 ч. 37 м.
Вид битрейта : Постоянный
Битрейт : 4372 Кбит/сек
Ширина : 1280 пикселей
Высота : 720 пикселей
Соотношение сторон : 16:9
Режим частоты кадров : Постоянный
Частота кадров : 59,940 (60000/1001) кадров/сек
Цветовое пространство : YUV
Субдискретизация насыщенности : 4:2:0
Битовая глубина : 8 бит
Тип развёртки : Прогрессивная
Бит/(Пиксели*Кадры) : 0.079
Размер потока : 2,98 Гбайт (97%)
Default : Да
Forced : Нет
Аудио
Идентификатор : 2
Формат : AAC
Формат/Информация : Advanced Audio Codec
Профиль формата : LC
Идентификатор кодека : A_AAC-2
Продолжительность : 1 ч. 37 м.
Битрейт : 125 Кбит/сек
Каналы : 2 канала
Расположение каналов : Front: L R
Частота : 48,0 КГц
Частота кадров : 46,875 кадров/сек (1024 SPF)
Метод сжатия : С потерями
Задержка видео : -825 мс.
Размер потока : 87,7 Мбайт (3%)
Default : Да
Forced : Нет

Ну в целом, качество картинки хорошее, жаль что выпало 6 минут и реклама не вырезана полностью.
Раздачу оставим, но статус: # сомнительно
Уж, пожалуйста, не обижайтесь.
[Профиль]  [ЛС] 

MyNameIsTurkish

Top Bonus 04* 3TB

Стаж: 10 лет 1 месяц

Сообщений: 211

MyNameIsTurkish · 18-Июл-19 01:29 (спустя 3 мин.)

Вайделот писал(а):
77686219MyNameIsTurkish
На данный момент это не критично. Завтра гляну, а то спать охота)
МИ все показывает.
MI
Формат : Matroska
Версия формата : Version 4 / Version 2
Размер файла : 3,07 Гбайт
Продолжительность : 1 ч. 37 м.
Общий поток : 4495 Кбит/сек
Дата кодирования : UTC 2019-07-17 22:08:49
Программа кодирования : mkvmerge v26.0.0 ('In The Game') 64-bit
Библиотека кодирования : libebml v1.3.6 + libmatroska v1.4.9
Видео
Идентификатор : 1
Формат : AVC
Формат/Информация : Advanced Video Codec
Профиль формата : [email protected]
Настройки формата : CABAC / 4 Ref Frames
Параметр CABAC формата : Да
Параметр ReFrames формата : 4 кадра
Идентификатор кодека : V_MPEG4/ISO/AVC
Продолжительность : 1 ч. 37 м.
Вид битрейта : Постоянный
Битрейт : 4372 Кбит/сек
Ширина : 1280 пикселей
Высота : 720 пикселей
Соотношение сторон : 16:9
Режим частоты кадров : Постоянный
Частота кадров : 59,940 (60000/1001) кадров/сек
Цветовое пространство : YUV
Субдискретизация насыщенности : 4:2:0
Битовая глубина : 8 бит
Тип развёртки : Прогрессивная
Бит/(Пиксели*Кадры) : 0.079
Размер потока : 2,98 Гбайт (97%)
Default : Да
Forced : Нет
Аудио
Идентификатор : 2
Формат : AAC
Формат/Информация : Advanced Audio Codec
Профиль формата : LC
Идентификатор кодека : A_AAC-2
Продолжительность : 1 ч. 37 м.
Битрейт : 125 Кбит/сек
Каналы : 2 канала
Расположение каналов : Front: L R
Частота : 48,0 КГц
Частота кадров : 46,875 кадров/сек (1024 SPF)
Метод сжатия : С потерями
Задержка видео : -825 мс.
Размер потока : 87,7 Мбайт (3%)
Default : Да
Forced : Нет

Ну в целом, качество картинки хорошее, жаль что выпало 6 минут и реклама не вырезана полностью.
Раздачу оставим, но статус: Сомнительно
Уж, пожалуйста, не обижайтесь.
Да не вопрос, самому жалко что картинка со звуком начали сыпаться , хорошо хоть что нашел резервный поток.
Все учту на будущее
[Профиль]  [ЛС] 

Вайделот

Moderator gray

Стаж: 9 лет 6 месяцев

Сообщений: 5358

Вайделот · 18-Июл-19 01:38 (спустя 8 мин., ред. 18-Июл-19 01:42)

MyNameIsTurkish
Спасибо за понимание. Ждем новых релизов
А чтобы увидеть фактическое МИ, файл можно прогнать через MKVToolnix (что я и сделал), это занимает 2-3 минуты, ну и мелкие ошибки может уберет, затыки/подвисоны, если они есть, но не факт.)
[Профиль]  [ЛС] 

Вайделот

Moderator gray

Стаж: 9 лет 6 месяцев

Сообщений: 5358

Вайделот · 18-Июл-19 17:54 (спустя 16 часов, ред. 18-Июл-19 17:55)

Цитата:
Ну в целом, качество картинки хорошее, жаль что выпало 6 минут и реклама не вырезана полностью.
Раздачу оставим, но статус: # сомнительно
Уж, пожалуйста, не обижайтесь.
Хотя чего это я, сам же поглядел и убедился в качестве картинки, а про недостатки подробно указано в описании, видимо спать очень хотел)
# сомнительно проверено
Премод на будущие релизы в разделе Футбол, снят.
[Профиль]  [ЛС] 

MyNameIsTurkish

Top Bonus 04* 3TB

Стаж: 10 лет 1 месяц

Сообщений: 211

MyNameIsTurkish · 18-Июл-19 23:08 (спустя 5 часов)

Вайделот писал(а):
77688946
Цитата:
Ну в целом, качество картинки хорошее, жаль что выпало 6 минут и реклама не вырезана полностью.
Раздачу оставим, но статус: # сомнительно
Уж, пожалуйста, не обижайтесь.
Хотя чего это я, сам же поглядел и убедился в качестве картинки, а про недостатки подробно указано в описании, видимо спать очень хотел)
# сомнительно проверено
Премод на будущие релизы в разделе Футбол, снят.
Спасибо , завтра постараюсь выложить финал в таком же качестве.
[Профиль]  [ЛС] 
 
Ответить
Loading...
Error