Адрес РуТрекера для пользователей РФ - 11.MainTracker.org

Расскажи друзьям:  

(Авторская песня) [2 LP][24/96] Владимир Высоцкий - Хоть немного еще постою на краю [Мелодия С60 25427 003] - 1987

Страницы :  1, 2  След.

Ответить
Автор
Сообщение

foxtrot_ru

Стаж: 11 лет 6 месяцев

Сообщений: 489


foxtrot_ru · 18-Ноя-08 21:04 (10 лет 5 месяцев назад, ред. 19-Июн-09 07:53)

Владимир Высоцкий - "...Хоть немного еще постою на краю..."



Жанр: Авторская песня
Год выпуска диска: 1987
Производитель диска: Мелодия СССР
Аудио кодек: APE
Тип рипа: side-tracks
Битрейт аудио: 24/96
Трэклист:
Первая пластинка:
Сторона 1 (4)
1. Песня о новом времени ( В. Высоцкий, пение)
2. Пожары ( В. Золотухин)
3. Если где-то в глухой, незнакомой ночи ( А. Демидова)
4. Песня о конце войны ( В. Золотухин)
5. Он не вернулся из боя ( В. Высоцкий, пение)
6. Из дорожного дневника ( В. Абдулов)
7. Песня о Земле ( В. Высоцкий, пение)
Сторона 2 (4)
1. Мне судьба - до последней черты, до креста... ( Л. Филатов)
2. Горизонт ( В. Высоцкий, пение)
3. Баллада о времени ( Л. Филатов)
4. Я не люблю ( В. Смехов)
5. Люблю тебя сейчас... ( Л. Филатов)
6. Мне каждый вечер зажигает свечи... ( В. Золотухин)
7. Я все вопросы освещу сполна ( В. Абдулов)
8. Кто-то высмотрел плод, что неспел... ( В. Высоцкий, пение)
Вторая пластинка:
Сторона 3 (4)
1. Канатоходец ( А. Демидова)
2. Песня певца у микрофона ( В. Высоцкий, пение)
3. Маски ( А. Демидова)
4. Енгибарову от зрителей ( В. Абдулов)
5. Мой Гамлет ( А. Демидова)
6. Истома ящерицей ползает в костях... ( В. Высоцкий, пение)
7. Поэтам и прочим, но больше поэтам ( В. Абдулов)
Сторона 4 (4)
1. Я бодрствую, но вещий сон мне снится ( В. Золотухин)
2. Охота на волков ( В. Высоцкий, пение)
3. Штормит весь вечер, и пока... ( А. Демидова)
4. Упрямо я стремлюсь ко дну ( В. Золотухин)
5. Чту Фауста ли, Дориана Грея ли... ( В. Абдулов)
6. Кони привередливые ( В. Высоцкий, пение)
7. Памятник ( Л. Филатов)
Доп. информация:
Посторонний рип двойного винила Мелодии 1987 года с компиляцией стихов Владимира Высоцкого в исполнении автора и его друзей и знакомых "...Хоть немного еще постою на краю..."
Мелодия 2LP С60 25427 003, Всесоюзная студия грамзаписи 1986
Апрелевский завод грампластинок, 1987, цена 5 руб.
От себя:
Качественная запись. Щелчков у винила также вроде не услышал. По покупке альбома в те далекие года, он игрался немного и иглой Шибата. Вроде не старой, но точно не припомню. С тех пор стоял вымытым в вертикальном положении до сего момента. Это к тому, что на записи слышны сибилянты. Правда сама запись как обычно "улучшена" Всесоюзной студией грамзаписи, потому как отдельные исполнения разнятся по уровням в каналах, причем частотозависимо, судя по фазовому анализатору. Песни Высоцкого взяты с французских сессий "Прерванного полета", причем сибилянты на них явственней, чем на записях этого же винила от самой Мелодии. Но что более интересно, низкоуровневый сигнал передан просто на ура, по винильному, совсем не так, как на любом из сидишных релизов "Прерванного полета". Единственная песня из записей Мелодии в исполнении Высоцкого это "Кони привередливые", причем, как понял, здесь она очень качественно положена на пластинку. Некоторые стихи, к моему стыду, не знаю, хотя Высоцким увлечен три десятка лет. Вообще, учитывая, что прежде этот двойник игрался иглой Шибата, сейчас для съема лучше бы применить какую толстую сферу, а не мой нынешний снова тонкотолщинный эллипс.
Снималось как обычно J.A.Michell>Denon>VU_AK5385B>ASIO>direct HDD access. Далее никакой обработки, кроме сжатия в APE правильным кодером 3.99, помнитcя с буквой f (по синхронизации наилучший из существующих кодеров lossless). Снимал в 24/96 исключительно из-за хорошего состояния и вроде редкости этого винила - вдруг кому то захочется программно поиздеваться.
Картинки взяты из сети - сканера в доступности нет.
Adobe Audition
Господа, извините меня сразу. Я принципиально не умею снимать спектры, потому прошу, что бы выкладка не была удалена за нарушение правил оформления, пожалуйста, кто умеет, снимите и выложите эти спектры для слушающих глазами, если, конечно, посчитаете нужным для себя скачать эти файлы. Заранее признателен.
Download
Чтобы скачать .torrent файл необходима регистрация
Сайт не распространяет и не хранит электронные версии произведений, а лишь предоставляет доступ к создаваемому пользователями каталогу ссылок на торрент-файлы, которые содержат только списки хеш-сумм
[Профиль]  [ЛС] 
 

foxtrot_ru

Стаж: 11 лет 6 месяцев

Сообщений: 489


foxtrot_ru · 18-Ноя-08 21:19 (спустя 14 мин.)

[Цитировать] 

Небольшое дополнение от меня - размер файлов значительный для моей скорости, да и в сети могу находиться не круглосуточно, потому рассчитывайте на пару-тройку суток загрузки.
[Профиль]  [ЛС] 

Oleg39

VIP (Заслуженный)

Стаж: 12 лет 2 месяца

Сообщений: 1582

Oleg39 · 18-Ноя-08 22:42 (спустя 1 час 22 мин., ред. 19-Ноя-08 06:52)

[Цитировать] 

Спасибо - винил лежит один запиленный, второй нулевый - все руки не доходили оцифровать. Спектры опубликовал под спойлером..
[Профиль]  [ЛС] 

eac-flac

Стаж: 10 лет 5 месяцев

Сообщений: 183


eac-flac · 19-Ноя-08 03:03 (спустя 4 часа, ред. 19-Ноя-08 03:03)

[Цитировать] 

Мои две копейки.
Винил этот не редкий,у меня перебывало кучу этих экземпляров,все знакомым пораздавал,т.к. не считал его коллекционным объектом.
Вообще конечно мытый винил,не есть гуд,звук меняется не в лучшую сторону.
Из Высоцкого на пластинках отечественного издания есть пожалуй почти все (Mint),кроме постановок "Мартин Иден" и "Зеленый Фургон",но карты звуковой для оцифровки нет.
[Профиль]  [ЛС] 

Allegro008

Стаж: 11 лет 6 месяцев

Сообщений: 18


Allegro008 · 19-Ноя-08 06:02 (спустя 2 часа 59 мин.)

[Цитировать] 

А вот мой пятак: Спасибо огромное раздающему, но диски, действительно были тогда редкими и мне отец, случайно их купил, возможно даже по блату... А я ссобой, в Германию привёз сам конверт от этого альбома. А вот за записью давно гонялся, так как не было её в сети доселе. Респект раздающему!
[Профиль]  [ЛС] 

Oleg39

VIP (Заслуженный)

Стаж: 12 лет 2 месяца

Сообщений: 1582

Oleg39 · 19-Ноя-08 06:53 (спустя 50 мин.)

[Цитировать] 

Ну в принципе хорошая оцифровка всегда есть хорошо
Спектры под спойлером.
[Профиль]  [ЛС] 

foxtrot_ru

Стаж: 11 лет 6 месяцев

Сообщений: 489


foxtrot_ru · 19-Ноя-08 07:07 (спустя 13 мин., ред. 19-Ноя-08 07:07)

[Цитировать] 

eac-flac Хмм... Вы, видимо, не совсем понимаете, что такое, и, главное, чем и как мытый винил.
Раритетностью своей выкладки себя также не тешу. Сия выкладка для меня означает лишь мою благодарность за известные труды уважаемых мною сообщников - все отлично знают этих людей.
Поянил вроде свою позицию...? Или я что-то не так понял?
Всем остальным - enjoy!
Oleg39 Спасибо!
[Профиль]  [ЛС] 

eac-flac

Стаж: 10 лет 5 месяцев

Сообщений: 183


eac-flac · 19-Ноя-08 07:58 (спустя 50 мин., ред. 19-Ноя-08 07:58)

[Цитировать] 

foxtrot_ru писал(а):
eac-flac Хмм... Вы, видимо, не совсем понимаете, что такое, и, главное, чем и как мытый винил.
Раритетностью своей выкладки себя также не тешу. Сия выкладка для меня означает лишь мою благодарность за известные труды уважаемых мною сообщников - все отлично знают этих людей.
Поянил вроде свою позицию...? Или я что-то не так понял?
Всем остальным - enjoy!
Oleg39 Спасибо!
Не стоит так сразу воспринимать в штыки- я лишь высказал мнение,некоим образом не уменьшая ваши заслуги,и не собираясь с кем-то ссориться. Задеть вас не хотел.
Мытье пластинок:изопропиловый спирт,дистиллят-классическая схема,хоть вручную,хоть с помощью машинки.Ну еще варианты кому нравится поэкспериментировать с ПАВ,ПВА и т.п.
Лично мне не нравится звучание вымытых пластинок,но это мое личное мнение.
А по поводу редкости этих пластинок,так опять-же высказал то с чем сталкивался,перебрав несколько тысяч отечественных пластинок сужу об этом(на Молотке двойник (NM) продается за 50 руб.).
Вот,что действительно трудно найти,так это постановку "Мартин Иден" выходила она в 1980-м году тиражом менее тысячи и перепечаток не было в последствии.
[Профиль]  [ЛС] 

foxtrot_ru

Стаж: 11 лет 6 месяцев

Сообщений: 489


foxtrot_ru · 19-Ноя-08 08:12 (спустя 14 мин.)

[Цитировать] 

Если мыть, как советовал в советские времена журнал Радио, и как это делалли советские радиолюбители - любой, по степени очистки, водой или, как Вы говорите ... клеем? (8-/) - то естественно будет добавлен неслабый рамбл и другой низкоуровневый шум.
Мыть надо исключительно только ОСЧ изопропилом в сочетании со специальными ПАВ, причем с вакуумным отсосом. Иначе просто загубите винил. Причем мыть надо тоже обязательно, иначе также загубите винил) (продуктами из окружающей среды и спилом самого винила, в совокупе довольно абразивная вещь).
[Профиль]  [ЛС] 

eac-flac

Стаж: 10 лет 5 месяцев

Сообщений: 183


eac-flac · 19-Ноя-08 09:17 (спустя 1 час 4 мин., ред. 19-Ноя-08 15:14)

[Цитировать] 

foxtrot_ru писал(а):
Если мыть, как советовал в советские времена журнал Радио, и как это делалли советские радиолюбители - любой, по степени очистки, водой или, как Вы говорите ... клеем? (8-/) - то естественно будет добавлен неслабый рамбл и другой низкоуровневый шум.
Мыть надо исключительно только ОСЧ изопропилом в сочетании со специальными ПАВ, причем с вакуумным отсосом. Иначе просто загубите винил. Причем мыть надо тоже обязательно, иначе также загубите винил) (продуктами из окружающей среды и спилом самого винила, в совокупе довольно абразивная вещь).
Да нет,я же писал дистиллят+изопропил,знакомый серьезно этим занимался,я то-же имел удовольствие сравнивать.
Вопрос не в рамбле и шуме(который возникает при неумелом мытье- цементирование грязью канавок),он -то как раз уходит,а в восприятии,но это очень субъективно все. На соответствующих форумах уже писано-переписано об этом и копий сломано достаточно. А клеем никогда не пробовал и пробовать не буду,это глупо по своей сути.Так-же как и фейри с пленкой которую он оставляет,шампунем и прочими "бытовухами".
Ну,да ладно...
P.S. Спасибо вам за релиз,Высоцкого много не бывает.
[Профиль]  [ЛС] 

doremi

Стаж: 11 лет 8 месяцев

Сообщений: 474


doremi · 19-Ноя-08 14:43 (спустя 5 часов)

[Цитировать] 

foxtrot_ru, спасибо, дорогой. Всего Вам доброго!
[Профиль]  [ЛС] 

Hammer.igor

Стаж: 12 лет 5 месяцев

Сообщений: 160

Hammer.igor · 23-Ноя-08 01:19 (спустя 3 дня)

[Цитировать] 

Спасибо большое. Я разыскиваю две российские пластинки Высоцкого: "Формулировка" и "Татуировка", может есть такие у кого-нибудь.
[Профиль]  [ЛС] 

Tradestoune

Стаж: 11 лет 1 месяц

Сообщений: 148

Tradestoune · 29-Ноя-08 13:56 (спустя 6 дней, ред. 29-Ноя-08 13:56)

[Цитировать] 

Может кому пригодится.
side01
REM GENRE Авторская песня
REM DATE 1987
PERFORMER "Владимир Высоцкий"
TITLE "...хоть немного еще постою на краю..."
FILE "side01.ape" WAVE
TRACK 01 AUDIO
TITLE "Песня о новом времени"
PERFORMER "Владимир Высоцкий"
INDEX 01 00:00:00
TRACK 02 AUDIO
TITLE "Пожары"
PERFORMER "Валерий Золотухин"
INDEX 01 02:41:50
TRACK 03 AUDIO
TITLE "Если где-то в глухой, незнакомой ночи..."
PERFORMER "Алла Демидова"
INDEX 01 05:40:50
TRACK 04 AUDIO
TITLE "Песня о конце войны"
PERFORMER "Валерий Золотухин"
INDEX 01 06:41:00
TRACK 05 AUDIO
TITLE "Он не вернулся из боя"
PERFORMER "Владимир Высоцкий"
INDEX 01 09:25:20
TRACK 06 AUDIO
TITLE "Из дорожного дневника"
PERFORMER "Всеволод Абдулов"
INDEX 01 12:35:70
TRACK 07 AUDIO
TITLE "Песня о земле"
PERFORMER "Владимир Высоцкий"
INDEX 01 17:22:70
side02
REM GENRE Авторская песня
REM DATE 1987
PERFORMER "Владимир Высоцкий"
TITLE "...хоть немного еще постою на краю..."
FILE "side02.ape" WAVE
TRACK 01 AUDIO
TITLE "Мне судьба - до последней черты..."
PERFORMER "Леонид Филатов"
INDEX 01 00:00:00
TRACK 02 AUDIO
TITLE "Горизонт"
PERFORMER "Владимир Высоцкий"
INDEX 01 03:39:50
TRACK 03 AUDIO
TITLE "Баллада о времени"
PERFORMER "Леонид Филатов"
INDEX 01 06:58:50
TRACK 04 AUDIO
TITLE "Я не люблю"
PERFORMER "Вениамин Смехов"
INDEX 01 10:25:00
TRACK 05 AUDIO
TITLE "Люблю тебя сейчас..."
PERFORMER "Леонид Филатов"
INDEX 01 12:20:20
TRACK 06 AUDIO
TITLE "Мне каждай вечер зажигает свечи..."
PERFORMER "Валерий Золотухин"
INDEX 01 15:10:70
TRACK 07 AUDIO
TITLE "Я все вопросы освещу сполна..."
PERFORMER "Всеволод Абдулов"
INDEX 01 16:46:70
TRACK 08 AUDIO
TITLE "Кто-то высмотрел плод, что не спел..."
PERFORMER "Владимир Высоцкий"
INDEX 01 18:32:70
side03
REM GENRE Авторская песня
REM DATE 1987
PERFORMER "Владимир Высоцкий"
TITLE "...хоть немного еще постою на краю..."
FILE "side03.ape" WAVE
TRACK 01 AUDIO
TITLE "Канатоходец"
PERFORMER "Алла Демидова"
INDEX 01 00:00:00
TRACK 02 AUDIO
TITLE "Песня певца у микрофона"
PERFORMER "Владимир Высоцкий"
INDEX 01 02:42:50
TRACK 03 AUDIO
TITLE "Маски"
PERFORMER "Алла Демидова"
INDEX 01 06:57:50
TRACK 04 AUDIO
TITLE "Енгибарову от зрителей"
PERFORMER "Всеволод Абдулов"
INDEX 01 09:05:00
TRACK 05 AUDIO
TITLE "Мой Гамлет"
PERFORMER "Алла Демидова"
INDEX 01 12:55:20
TRACK 06 AUDIO
TITLE "Истома ящерецей ползает в костях..."
PERFORMER "Владимир Высоцкий"
INDEX 01 17:31:70
TRACK 07 AUDIO
TITLE "Поэтам и прочим, но больше поэтам"
PERFORMER "Всеволод Абдулов"
INDEX 01 21:17:70
side04
REM GENRE Авторская песня
REM DATE 1987
PERFORMER "Владимир Высоцкий"
TITLE "...хоть немного еще постою на краю..."
FILE "side04.ape" WAVE
TRACK 01 AUDIO
TITLE "Я бодрствую, но вещий сон мне снится..."
PERFORMER "Валерий Золотухин"
INDEX 01 00:00:00
TRACK 02 AUDIO
TITLE "Охота на волков"
PERFORMER "Владимир Высоцкий"
INDEX 01 02:57:00
TRACK 03 AUDIO
TITLE "Штормит весь вечер..."
PERFORMER "Алла Демидова"
INDEX 01 06:13:70
TRACK 04 AUDIO
TITLE "Упрямо я стремлюсь ко дну..."
PERFORMER "Валерий Золотухин"
INDEX 01 09:13:00
TRACK 05 AUDIO
TITLE "Чту Фауста ли, Дориана Грея ли..."
PERFORMER "Всеволод Абдулов"
INDEX 01 13:44:20
TRACK 06 AUDIO
TITLE "Кони привередливые"
PERFORMER "Владимир Высоцкий"
INDEX 01 15:19:70
TRACK 07 AUDIO
TITLE "Памятник"
PERFORMER "Леонид Филатов"
INDEX 01 20:22:70
[Профиль]  [ЛС] 

Tradestoune

Стаж: 11 лет 1 месяц

Сообщений: 148

Tradestoune · 29-Ноя-08 14:03 (спустя 6 мин., ред. 29-Ноя-08 16:18)

[Цитировать] 

Только сейчас удалось послушать, рип хороший, а на моих ёлках, звучит просто класс, спасибо огромное еще раз foxtrot_ru.
Да, еще хотел поинтересоваться, смогу ли я записать все это добро на CD в 24/96, либо придётся конвертировать в 16/44.1?
[Профиль]  [ЛС] 

malin2

Стаж: 11 лет 2 месяца

Сообщений: 45

malin2 · 29-Ноя-08 15:22 (спустя 1 час 19 мин.)

[Цитировать] 

Я В ДЕТСТВЕ СЛУШАЛ... Не понимал, но очень нравилось. Некоторые вещи просто врезались в мозг. "...Смог ли чашу он выпить, узнать не могу..." Потрясающе глубокое звучание песен, настоящие стихи, исполненные друзьями ПОЭТА, очень достойными артистами, людьми.
Детства уже нет, пластинки не было. Вспоминал. - Сейчас, послушал - как в детство попал, а материал с пластинки стал еще гармоничней - на ней не одного лишнего слога, звука, не одной лишней ноты!
Великая вещь! Вряд ли я еще услылу что-либо подобное... Есть ли у кого подобные великие пластинки, кассеты, диски, песни, книги, стихи?
[Профиль]  [ЛС] 

foxtrot_ru

Стаж: 11 лет 6 месяцев

Сообщений: 489


foxtrot_ru · 29-Ноя-08 23:21 (спустя 7 часов)

[Цитировать] 

Tradestoune писал(а):
а на моих ёлках, звучит просто класс, спасибо огромное еще раз foxtrot_ru.
Да, еще хотел поинтересоваться, смогу ли я записать все это добро на CD в 24/96, либо придётся конвертировать в 16/44.1?
Раз ёлки, значит есть куда двигаться))
По вопросу - к сожалению, формат CDDA не поддерживает никакого другого разрешения, кроме 16/44. Да и проигрывателй этого формата прилично натурально воспроизводящих совсем мало. Может на DVD-A лучше попробуешь? Здесь хоть проигрывателей нормальных поболее ныне.
[Профиль]  [ЛС] 

foxtrot_ru

Стаж: 11 лет 6 месяцев

Сообщений: 489


foxtrot_ru · 29-Ноя-08 23:42 (спустя 21 мин.)

[Цитировать] 

Есть. И много. Бродский, Хлебников, Черный, Рождественский. И другие. Просто, видимо, Вам не попадались такие стихи, чтобы зацепило и открыло Вам гейт в их мир.
Надеюсь, до Нового года выложу пластинку Матвеевой - в частностях ничего особого, но в совокупности крышесшибающая вещь, не просто так тот же Высоцкий исполнял её песню.
Олег Даль очень неплохо читал стихи, у меня есть винил его моноспектакля на стихи Лермонтова.
Да, заинтересованным стоит посмотреть на работы Градского - он в основном то и сочинял свою музыку на стихи очень отрывных поэтов и затем сам же и исполял. В принципе есть все его винилы, исключая не помню какого одного, но рипать смысла не вижу - по-моему они все есть на компактах.
[Профиль]  [ЛС] 

malin2

Стаж: 11 лет 2 месяца

Сообщений: 45

malin2 · 30-Ноя-08 00:45 (спустя 1 час 2 мин.)

[Цитировать] 

foxtrot_ru Даль, кстати, с Высоцким играл в Плохом Хорошем человеке. Фильм высокого уровня, конечно же вы его смотрели. В общем, если выложите Даля, буду Вам признателен, и за Матвееву тоже. Бродского слышал в исполнении Митяева - не очень понравилось - не близко мне это. Но за совет спасибо. Черный действительно не плох. Градского попытаюсь послушать. Спасибо еще раз за совет.
[Профиль]  [ЛС] 

omavkome

Победители конкурсов

Стаж: 13 лет 11 месяцев

Сообщений: 13277

omavkome · 03-Дек-08 00:49 (спустя 3 дня, ред. 03-Дек-08 12:29)

[Цитировать] 

Еще бы французкий оригинал в таком качестве.
С П А С И Б О !!!
Tradestoune
Спасибо, избавили от дополнительной работы!
[Профиль]  [ЛС] 

omavkome

Победители конкурсов

Стаж: 13 лет 11 месяцев

Сообщений: 13277

omavkome · 03-Дек-08 13:54 (спустя 13 часов, ред. 03-Дек-08 13:54)

[Цитировать] 

Oleg39
Вы что-то быстро состарились, видимо от курения?
Извиняюсь за флудильню...
[Профиль]  [ЛС] 

лом 1969

Стаж: 10 лет 6 месяцев

Сообщений: 38

лом 1969 · 10-Дек-08 23:58 (спустя 7 дней)

[Цитировать] 

Уважаемые, в торренте присутствует файл Хоть немного еще постою на краю С60 25427 003.docx ; что это, и что с ним делать
[Профиль]  [ЛС] 

Tradestoune

Стаж: 11 лет 1 месяц

Сообщений: 148

Tradestoune · 14-Дек-08 00:42 (спустя 3 дня, ред. 14-Дек-08 00:42)

[Цитировать] 

лом 1969 писал(а):
Уважаемые, в торренте присутствует файл Хоть немного еще постою на краю С60 25427 003.docx ; что это, и что с ним делать
Это файл "Microsoft Office Word" 2007, можно скачать, только перед этим надо установить Microsoft Office 2007, чтоб он открылся.
Сам по себе, файл содержит информацию по пластинкам.
[Профиль]  [ЛС] 

Fortunatus

Стаж: 11 лет 1 месяц

Сообщений: 28


Fortunatus · 15-Май-09 22:48 (спустя 5 месяцев 1 день)

[Цитировать] 

Спасибо! Прекрасно помню этот диск...
[Профиль]  [ЛС] 

ЭТОТТЪ

Стаж: 10 лет 4 месяца

Сообщений: 288

ЭТОТТЪ · 21-Июн-09 03:14 (спустя 1 месяц 5 дней, ред. 21-Июн-09 03:14)

[Цитировать] 

Спасибо за раздачу.
Отдельное спасибо Tradestoune за разметку.
Одно удивляет. На "Мелодии" вышли CD "Избранное" , "Влади и Высоцкий",
даже серия " На концертах В.В." (хотя звук там, как Владимир Семенович предсказывал в "Памятнике"), а этот диск и вот этот http://1.maintracker.org/forum/viewtopic.php?t=1768227 не удосужились.
Попробую сотворить сам. Может CD, может DVD - как получится.
Еще раз спасибо.
[Профиль]  [ЛС] 

foxtrot_ru

Стаж: 11 лет 6 месяцев

Сообщений: 489


foxtrot_ru · 21-Июн-09 04:37 (спустя 1 час 23 мин.)

[Цитировать] 

Зачем CD - звук угробить...? Устаревший формат... И ДВД тоже качеством не блещет, со именно стороны аппаратурного обеспечания у потребителей - ДВД то изначально был разработан для видео, и аудио в нормальном формате для музыки к нему присобачили только потом, после того как Сони начала разрабатывать свое супераудио. И специальные ДВДаудио плейеры, которые сопоставимы по качеству с этим помом принятым наперевес Сони стандартом ДВД-аудио, стоят вполне серьезные деньги, что ими никто особо то и не заморачивается. Да и слепить ДВд диск из этого, это точно так же, как записать болванку с аудио для СД. Сегодня уже каждый сделать может сам, насколько я понимаю, общаясь с обычными людьми. В Вы думаете, что сегодня записать на диск проблема? Ну не знаю))
Новый, настоящий по качеству аудио формат уже пошел. В нем сейчас надо делать, на радость Сони)
[Профиль]  [ЛС] 

ЭТОТТЪ

Стаж: 10 лет 4 месяца

Сообщений: 288

ЭТОТТЪ · 29-Июн-09 10:28 (спустя 8 дней)

[Цитировать] 

Я СДЕЛАЛ DVD-AUDIO!!!
КАЙФ КАКОЙ!!!
ВСЕМ СОВЕТУЮ.
[Профиль]  [ЛС] 

kuharenkovolodya

Стаж: 9 лет 5 месяцев

Сообщений: 28

kuharenkovolodya · 28-Фев-10 08:13 (спустя 7 месяцев)

[Цитировать] 

Не слышал раньше - очень интересный материал, качество звука понравилось очень! Спасибо.
Куй одним файлом
скрытый текст
REM GENRE Авторская песня
REM DATE 1987
PERFORMER "Владимир Высоцкий"
TITLE "...хоть немного еще постою на краю..."
FILE "side01.ape" WAVE
TRACK 01 AUDIO
TITLE "Песня о новом времени"
PERFORMER "Владимир Высоцкий"
INDEX 01 00:00:00
TRACK 02 AUDIO
TITLE "Пожары"
PERFORMER "Валерий Золотухин"
INDEX 01 02:41:50
TRACK 03 AUDIO
TITLE "Если где-то в глухой, незнакомой ночи..."
PERFORMER "Алла Демидова"
INDEX 01 05:40:50
TRACK 04 AUDIO
TITLE "Песня о конце войны"
PERFORMER "Валерий Золотухин"
INDEX 01 06:41:00
TRACK 05 AUDIO
TITLE "Он не вернулся из боя"
PERFORMER "Владимир Высоцкий"
INDEX 01 09:25:20
TRACK 06 AUDIO
TITLE "Из дорожного дневника"
PERFORMER "Всеволод Абдулов"
INDEX 01 12:35:70
TRACK 07 AUDIO
TITLE "Песня о земле"
PERFORMER "Владимир Высоцкий"
INDEX 01 17:22:70
FILE "side02.ape" WAVE
TRACK 08 AUDIO
TITLE "Мне судьба - до последней черты..."
PERFORMER "Леонид Филатов"
INDEX 01 00:00:00
TRACK 09 AUDIO
TITLE "Горизонт"
PERFORMER "Владимир Высоцкий"
INDEX 01 03:39:50
TRACK 10 AUDIO
TITLE "Баллада о времени"
PERFORMER "Леонид Филатов"
INDEX 01 06:58:50
TRACK 11 AUDIO
TITLE "Я не люблю"
PERFORMER "Вениамин Смехов"
INDEX 01 10:25:00
TRACK 12 AUDIO
TITLE "Люблю тебя сейчас..."
PERFORMER "Леонид Филатов"
INDEX 01 12:20:20
TRACK 13 AUDIO
TITLE "Мне каждай вечер зажигает свечи..."
PERFORMER "Валерий Золотухин"
INDEX 01 15:10:70
TRACK 14 AUDIO
TITLE "Я все вопросы освещу сполна..."
PERFORMER "Всеволод Абдулов"
INDEX 01 16:46:70
TRACK 15 AUDIO
TITLE "Кто-то высмотрел плод, что не спел..."
PERFORMER "Владимир Высоцкий"
INDEX 01 18:32:70
FILE "side03.ape" WAVE
TRACK 16 AUDIO
TITLE "Канатоходец"
PERFORMER "Алла Демидова"
INDEX 01 00:00:00
TRACK 17 AUDIO
TITLE "Песня певца у микрофона"
PERFORMER "Владимир Высоцкий"
INDEX 01 02:42:50
TRACK 18 AUDIO
TITLE "Маски"
PERFORMER "Алла Демидова"
INDEX 01 06:57:50
TRACK 19 AUDIO
TITLE "Енгибарову от зрителей"
PERFORMER "Всеволод Абдулов"
INDEX 01 09:05:00
TRACK 20 AUDIO
TITLE "Мой Гамлет"
PERFORMER "Алла Демидова"
INDEX 01 12:55:20
TRACK 21 AUDIO
TITLE "Истома ящерецей ползает в костях..."
PERFORMER "Владимир Высоцкий"
INDEX 01 17:31:70
TRACK 22 AUDIO
TITLE "Поэтам и прочим, но больше поэтам"
PERFORMER "Всеволод Абдулов"
INDEX 01 21:17:70
FILE "side04.ape" WAVE
TRACK 23 AUDIO
TITLE "Я бодрствую, но вещий сон мне снится..."
PERFORMER "Валерий Золотухин"
INDEX 01 00:00:00
TRACK 24 AUDIO
TITLE "Охота на волков"
PERFORMER "Владимир Высоцкий"
INDEX 01 02:57:00
TRACK 25 AUDIO
TITLE "Штормит весь вечер..."
PERFORMER "Алла Демидова"
INDEX 01 06:13:70
TRACK 26 AUDIO
TITLE "Упрямо я стремлюсь ко дну..."
PERFORMER "Валерий Золотухин"
INDEX 01 09:13:00
TRACK 27 AUDIO
TITLE "Чту Фауста ли, Дориана Грея ли..."
PERFORMER "Всеволод Абдулов"
INDEX 01 13:44:20
TRACK 28 AUDIO
TITLE "Кони привередливые"
PERFORMER "Владимир Высоцкий"
INDEX 01 15:19:70
TRACK 29 AUDIO
TITLE "Памятник"
PERFORMER "Леонид Филатов"
INDEX 01 20:22:70
[Профиль]  [ЛС] 

hi-okktane

Стаж: 9 лет 4 месяца

Сообщений: 728

hi-okktane · 16-Июн-10 17:47 (спустя 3 месяца 16 дней, ред. 16-Июн-10 17:47)

[Цитировать] 

Как куи эти использовать,подскажите??? Скопировал в тхт, переименовал в side01,side02 и тд...а Easy CD-DA Extractor пишет "Invalid CUE Sheet (Invalid time format) "
И если общий куй-шит для всего альбома юзать, как он должен называться? Допустим я хочу сделать два cd-audio, загнав по винилке на каждую...реально ли?
[Профиль]  [ЛС] 

omavkome

Победители конкурсов

Стаж: 13 лет 11 месяцев

Сообщений: 13277

omavkome · 16-Июн-10 18:14 (спустя 27 мин.)

[Цитировать] 

hi-okktane писал(а):
Скопировал в тхт, переименовал в side01,side02
д.б.
side01.cue
side02.cue
[Профиль]  [ЛС] 

Nthnsq

Стаж: 9 лет 11 месяцев

Сообщений: 601

Nthnsq · 17-Июн-10 18:09 (спустя 23 часа)

[Цитировать] 

а где скорость-то?
[Профиль]  [ЛС] 
 
Ответить
Loading...
Error