(Ambient / Post Rock) Thisquietarmy - Unconquered / 2008, FLAC (tracks+.cue), lossless

Страницы:  1

Ответить
Автор
Сообщение

stanemte

Top Seed 04* 320r

Стаж: 11 лет 1 месяц

Сообщений: 683

stanemte · 20-Фев-09 11:08 (9 лет 7 месяцев назад, ред. 20-Фев-09 11:26)

Thisquietarmy - Unconquered / 2008
Жанр: Ambient / Post Rock
Год выпуска диска: 2008
Производитель диска: Foreshadow FSHCD007
Аудио кодек: FLAC
Тип рипа: tracks+.cue
Битрейт аудио: lossless
Продолжительность: 54:00.000 (142884000 samples)
01. Immobilization : 6:22
02. Battlefield Arkestrah : 9:15
03. Warchitects : 5:20
04. The Sun Destroyers : 6:06
05. Death of a Sailor : 5:18
06. The Great Escapist : 6:17
07. Mercenary Flags : 9:08
08. Empire : 6:15

http://www.thisquietarmy.com
http://www.myspace.com/thisquietarmy
About
THISQUIETARMY is a solo project from a young talented Canada-based artist Eric Quach. He is also known for being a guitarist in a renowned shoe-gaze band DESTROYALLDREAMERS. As THISQUIETARMY, he explores never-ending spectrum of guitar ambience and loop drone sounds.
From the mellow opening of“Immobilization”, through grandiose “Battlefield Arkestrah” and “The Sun Destroyers”, gloomy “Death of a Sailor”, to closing notes of “Empire”, Eric Quach manages to capture the essence of contemporary alternative guitar experimentation while maintaining disturbing but also captivating aural atmosphere. “Unconquered” presents this musical project as consciously standing among the best artists of this genre, which is symbolized by the guest appearance of Aidan Baker.
On the other hand, THISQUIETARMY, already on his debut album,looks far into the future and crosses the boundaries, the best sign of which are the clean female vocals of Meryem Yildiz in one of the tracks – something not common in the field of ambient drone guitar music. Eric’s experience in DESTROYALLDREAMERS, numerous live performances, brave open mind and genuine artistic freedom allowed him to deliver his first official debut full-length album in a flawless and extraordinary way.
Rip by KBJghost
EAC extraction logfile from 15. April 2008, 15:09 for CD
thisquietarmy / Unconquered
Used drive : PLEXTOR DVDR PX-750A Adapter: 0 ID: 0
Read mode : Secure with NO C2, accurate stream, disable cache
Read offset correction : 102
Overread into Lead-In and Lead-Out : No
Used output format : C:\Program Files\Exact Audio Copy\FLAC\flac.exe (User Defined Encoder)
192 kBit/s
Additional command line options : -V -8 -T "artist=%a" -T "title=%t" -T "album=%g" -T "date=%y" -T "tracknumber=%n" -T "genre=%m" %s
Other options :
Fill up missing offset samples with silence : Yes
Delete leading and trailing silent blocks : No
Native Win32 interface for Win NT & 2000
Track 1
Filename E:\FLAC\thisquietarmy - Unconquered\01 - Immobilization.wav
Pre-gap length 0:00:02.00
Peak level 98.8 %
Track quality 100.0 %
Test CRC DF451C6F
Copy CRC DF451C6F
Copy OK
Track 2
Filename E:\FLAC\thisquietarmy - Unconquered\02 - Battlefield Arkestrah.wav
Peak level 100.0 %
Track quality 100.0 %
Test CRC 0F06934D
Copy CRC 0F06934D
Copy OK
Track 3
Filename E:\FLAC\thisquietarmy - Unconquered\03 - Warchitects.wav
Peak level 100.0 %
Track quality 100.0 %
Test CRC 2CDFCCC8
Copy CRC 2CDFCCC8
Copy OK
Track 4
Filename E:\FLAC\thisquietarmy - Unconquered\04 - The Sun Destroyers.wav
Peak level 98.8 %
Track quality 100.0 %
Test CRC 2FDEE16C
Copy CRC 2FDEE16C
Copy OK
Track 5
Filename E:\FLAC\thisquietarmy - Unconquered\05 - Death of a Sailor.wav
Peak level 98.8 %
Track quality 100.0 %
Test CRC BC1E1BDF
Copy CRC BC1E1BDF
Copy OK
Track 6
Filename E:\FLAC\thisquietarmy - Unconquered\06 - The Great Escapist.wav
Peak level 100.0 %
Track quality 100.0 %
Test CRC 25A9903F
Copy CRC 25A9903F
Copy OK
Track 7
Filename E:\FLAC\thisquietarmy - Unconquered\07 - Mercenary Flags.wav
Peak level 100.0 %
Track quality 100.0 %
Test CRC A9802079
Copy CRC A9802079
Copy OK
Track 8
Filename E:\FLAC\thisquietarmy - Unconquered\08 - Empire.wav
Peak level 100.0 %
Track quality 99.9 %
Test CRC F9021315
Copy CRC F9021315
Copy OK
No errors occured
End of status report

Download
Чтобы скачать .torrent файл необходима регистрация
Сайт не распространяет и не хранит электронные версии произведений, а лишь предоставляет доступ к создаваемому пользователями каталогу ссылок на торрент-файлы, которые содержат только списки хеш-сумм
[Профиль]  [ЛС] 
 

neurologist

Стаж: 8 лет 9 месяцев

Сообщений: 304

neurologist · 04-Мар-10 10:21 (спустя 1 год)

[Цитировать] 

Замечательный инструментальный эмбиэнт,красиво сплетенный с воздушным пост-роком. Огромное спасибо за знакомство с группой!
[Профиль]  [ЛС] 

Nezvanov

Стаж: 9 лет 8 месяцев

Сообщений: 173

Nezvanov · 04-Мар-10 16:30 (спустя 6 часов, ред. 04-Мар-10 16:30)

[Цитировать] 

вещь великолепная. прошлый год заслушивал альбомы этого канадца. не менее интересно его творчество в группе уже больше построковой destroyalldreamers. а в этом году превосходный релиз совместный с эйданом бэйкером. правда в других разделах альбомы этой тихой армии.
[Профиль]  [ЛС] 

R-keeper

Стаж: 9 лет 10 месяцев

Сообщений: 1830


R-keeper · 09-Дек-17 21:54 (спустя 7 лет 9 месяцев)

[Цитировать] 

Внимание! Раздача Thisquietarmy - Unconquered / 2008 перезалита без изменения содержимого в связи с просьбой администрации снять флаг "Приватная раздача". Скачавшим ранее просьба перекачать торрент-файл, перехешировать содержимое и присоединиться к раздаче.
[Профиль]  [ЛС] 
 
Ответить
Loading...
Error