Адрес РуТрекера для пользователей РФ - 11.MainTracker.org

Расскажи друзьям:  

Адрес РуТрекера для пользователей РФ - 11.MainTracker.org

Расскажи друзьям:  

Тайский классический массаж. Семинар проводил Владимир Нифаев [2008, массаж, DVDRip]

Страницы:  1
Ответить
 

andersen75

Стаж: 10 лет 8 месяцев

Сообщений: 112

andersen75 · 12-Мар-09 21:18 (10 лет 7 месяцев назад, ред. 12-Мар-09 21:26)

Тайский классический массаж. Семинар проводил Владимир Нифаев
Год выпуска: 2008
Страна: Россия
Жанр: Обучающая программа
Продолжительность: 40 минут
Язык: Русский
Описание: Классический тайский массаж. Семинар проводил Владимир Нифаев. Готовая версия для практиков массажа. Всё хорошо видно и понятно, без лишних слов.
Доп. информация: DVD 5 - http://1.maintracker.org/forum/viewtopic.php?t=1530758
Качество: DVDRip
Формат: AVI
Видео кодек: DivX
Аудио кодек: MP3
Видео: DivX 5 640x432 23.976fps
Аудио: MP3 44100Hz stereo 192kbps
Скриншоты
MediaInfo
General
Format : AVI
Format/Info : Audio Video Interleave
File size : 262 MiB
Duration : 37 min 18 s
Overall bit rate : 980 kb/s
Video
ID : 0
Format : MPEG-4 Visual
Format settings, BVOP : No
Format settings, QPel : No
Format settings, GMC : No warppoints
Format settings, Matrix : Default (H.263)
Codec ID : DX50
Codec ID/Hint : DivX 5
Duration : 37 min 18 s
Bit rate : 779 kb/s
Nominal bit rate : 6 951 kb/s
Width : 640 pixels
Height : 432 pixels
Display aspect ratio : 3:2
Frame rate : 23.976 (24000/1001) FPS
Color space : YUV
Chroma subsampling : 4:2:0
Bit depth : 8 bits
Scan type : Progressive
Compression mode : Lossy
Bits/(Pixel*Frame) : 0.118
Stream size : 208 MiB (79%)
Writing library : DivX 5.2.1 (DrDivX 106) (UTC 2004-09-08)
Audio
ID : 1
Format : MPEG Audio
Format version : Version 1
Format profile : Layer 3
Codec ID : 55
Codec ID/Hint : MP3
Duration : 37 min 18 s
Bit rate mode : Constant
Bit rate : 192 kb/s
Channel(s) : 2 channels
Sampling rate : 44.1 kHz
Compression mode : Lossy
Delay relative to video : 26 ms
Stream size : 51.2 MiB (20%)
Alignment : Split accross interleaves
Interleave, duration : 42 ms (1.00 video frame)
Title : Audio Stream
Download
Сайт не распространяет и не хранит электронные версии произведений, а лишь предоставляет доступ к создаваемому пользователями каталогу ссылок на торрент-файлы, которые содержат только списки хеш-сумм
Как скачивать? (для скачивания .torrent файлов необходима регистрация)
[Профиль]  [ЛС] 

irbis60

Стаж: 10 лет 6 месяцев

Сообщений: 21

irbis60 · 01-Авг-09 22:09 (спустя 4 месяца 20 дней)

555 закачек и ни одного сидера!
[Профиль]  [ЛС] 

Гость


Гость · 10-Сен-09 19:57 (спустя 1 месяц 8 дней)

а разве массаж в одежде делают?
 

Boba sh

Стаж: 11 лет 11 месяцев

Сообщений: 22


Boba sh · 02-Дек-09 15:42 (спустя 2 месяца 21 день, ред. 02-Дек-09 15:42)

Гость писал(а):
а разве массаж в одежде делают?
Тайский классический только в одежде, и чем больше прикрыт пртнер(пациент), тем лучше.
Девушка на скрине практически голая.
[Профиль]  [ЛС] 

MalcolmX

Колония прокаженных

Стаж: 11 лет 4 месяца

Сообщений: 1301

MalcolmX · 14-Июл-17 10:18 (спустя 7 лет 7 месяцев)

Торрент-файл перезалит без изменения содержимого раздачи в связи с просьбой администрации снять флаг "Приватная раздача". Скачавшим ранее просьба перекачать торрент-файл, перехешировать содержимое и присоединиться к раздаче.
[Профиль]  [ЛС] 
 
Ответить
Loading...
Error