Адрес РуТрекера для пользователей РФ - 11.MainTracker.org

Расскажи друзьям:  

(classical / vocal) Сергей Мигай. Русский романс / Sergei Migai. Russian Romances - 2006, FLAC (image+.cue), lossless

Страницы:  1

Ответить
Автор
Сообщение

sermada

Стаж: 10 лет 5 месяцев

Сообщений: 81

sermada · 13-Ноя-09 21:02 (9 лет 8 месяцев назад, ред. 14-Янв-10 00:11)

Сергей Мигай. Русский романс / Sergei Migai. Russian Romances
Жанр: classical / vocal
Год выпуска диска: 2006
Производитель диска: Россия
Аудио кодек: FLAC
Тип рипа: image+.cue
Битрейт аудио: lossless
Продолжительность: 72.58
Трэклист:
1. Оправдание (А. Гурилев; М. Лермонтов) 3:10
2. Ты и вы (А. Гурилев; А. Пушкин) 0:56
3. Признание (М. Глинка; А. Пушкин) 1:03
4. Ночной зефир (М. Глинка; А. Пушкин) 1:55
5. Забуду ль я (М. Глинка; С. Голицын) 2:27
6. Вы не придете вновь (дуэт) (М. Глинка; П. Дубровский) 3:42
7. Элегия (дуэт) (М. Глинка; Е. Баратынский) 4:26
8. Прости меня, прости (дуэт) (обр. М. Глинки; А.Булгаков, П.Федоров) 4:39
9. За окном в тени мелькает (П. Булахов; Я. Полонский) 1:26
10. К Морфею (Н.Титов; А. Пушкин) 2:24
11. Талисман (Н. Титов; А. Пушкин) 4:41
12. Твоих признаний (Н. Титов; А. Пушкин) 1:50
13. Горные вершины (Н. Титов; М. Лермонтов) 1:46
14. Завещание (Э. Лангер; М. Лермонтов) 3:44
15. Элегия ("Душа моя мрачна") (Н. Дмитриев; М. Лермонтов) 3:56
16. Безумно жаждать твоей встречи (дуэт) (А. Даргомыжский; Э. Губер) 1:43
17. Как небеса, твой взор блистает (А. Серов; М. Лермонтов) 3:39
18. В темной роще замолк соловей (Н. Римский-Корсаков; И. Никитин) 2:56
19. Ночь (Н. Римский-Корсаков; А. Плещеев) 3:07
20. Мой голос для тебя... (Н. Римский-Корсаков; А. Пушкин) 1:38
21. Я верю, я любим (Н.Римский-Корсаков; А.Пушкин) 1:01
22. Грезы (дуэт) (А. Гречанинов; А. Мейснер (из В. Гюго)) 3:53
23. Сон (М. Балакирев; М. Лермонтов) 3:34
24. Слышу ли голос твой (М. Балакирев; М. Лермонтов) 1:12
25. Из-под таинственной холодной полумаски (М. Балакирев; М. Лермонтов) 1:53
26. Роняет лес багряный свой убор (Г. Свиридов; А. Пушкин) 4:16
27. Подъезжая под Ижоры (Г. Свиридов; А. Пушкин) 1:48
Доп. информация:
Г. Нелепп, тенор (6-8, 16, 22)
Н. Вальтер, фортепиано.
Годы записи: 1946 (1, 2, 9-14), 1947 (6-8, 16-24), 1948 (3-5, 25-27), 1950 (15).
Составитель: М. Никифоров
24 Bit Remastering
AQUARIUS, AQVR 263-2
Серия: Выдающиеся исполнители
Сканы обложек и диска включены в раздачу.
о Сергее Ивановиче Мигае
Сергей Иванович Мигай [18(30).5.1888, Могилев — 8.12.1959, Москва] — арт. оперы (лирич. баритон), камерный певец. Нар. арт. РСФСР (1939). Род. в семье священника. С шести лет пел в церковном хоре, затем в хоре могилев. гимназии (иногда сольные партии), увлекался игрой на флейте. В 1907—09 учился на юридич. ф-те Петерб. ун-та, одновременно занимался вокалом в Петерб. конс. (кл. С. Габеля). За участие в студенческих волнениях был исключен из ун-та. Переехав в Одессу, поступил на юридич. ф-т Новороссийского ун-та. Одновременно в 1909—11 обучался пению в Одесском муз. уч-ще (кл. Ю. Рейдер). Впервые выступил на конц. эстраде 4 дек. 1909 с исп. арии Князя Игоря. В 1911 по рекомендации А. Неждановой был принят в Большой т-р (дебютировал в партии Валентина — "Фауст" в апр. 1912), на сцене к-рого выступал до 1924 и в 1927—30 (также гастролировал здесь в 1935— 38). С февр. 1912 обучался пению (св. 100 уроков) у гастролировавшего тогда в Москве М. Баттистини, под чьим рук. подготовил партии Дон Жуана ("Дон Жуан"), Фигаро ("Свадьба Фигаро") и Жермона. С 1916 совершенствовал сцен. искусство у К. Станиславского, подготовил под его рук. партии Онегина и Грязного (1917), Риголетто (1919—20). В 1921 впервые с большим успехом выступил в Петрограде. В 1924—26 и 1929— 41 солист ленингр. ГАТОБа (дебютировал в партии Дон Жуана — "Дон Жуан"), В 1926—27 выступал в Моск. оперной студии — т-ре им. К. С. Станиславского. В 1925—35 гастролировал в Харькове, Киеве, Одессе, Казани, Свердловске, Баку, Тбилиси (здесь выступал неоднократно; в спектакле "Кармен", посвященном памяти певца В. Сараджишвили, исп. партию Эскамилио на груз. яз.). Обладал сильным, ровным, гибким голосом чарующего "бархатного" тембра и широкого диапазона (св. двух октав), виртуозной техникой, мастерством филировки, умением петь на mezzo voce. В зависимости от стиля произв. и вокального характера партии певец менял манеру пения и окраску звука. "Безупречная кантилена, верхние ноты, в которых, казалось, он "купался", были легкими, непринужденными, лишенными всякой форсировки, и, наконец, четкое, ясное слово при абсолютно чистой интонации. Голос был ему послушен на форте и пиано... Он пел на беспрерывно льющемся звуке. Да, это была кантилена в самом лучшем значении этого слова. Мягкость его голоса сливалась с прекрасным тембром, создавала пластичность, при которой речевые интонации были тесно связаны с музыкой, что в целом составляло характерную, живую, музыкальную речь" (В. Шкафер). Благодаря виртуозному техническому мастерству с равным успехом выступал в лирич. и драм. партиях. Репертуар включал 65 партий (из них 43 ведущих). 1-й исп. в Большом т-ре партий: Ивана-королевича ("Кащей бессмертный"), 2-го корабельщика ("Сказка о царе Салтане"), Де Бретиньи ("Манон").Лучшие партии: Демон ("Демон" А. Рубинштейна), Князь Игорь, Грязной, Мизгирь ("Снегурочка"), Мазепа ("Мазепа" П. Чайковского), Роберт ("Иоланта"), Онегин; Фигаро ("Севильский цирюльник" Дж. Россини), Ренато, Эскамилио, Тельрамунд. Др. партии: Веденецкий гость, Елецкий; Риголетто, Амонасро, Жермон, Граф ди Луна, Миллер, Фредерик. Партнеры: Р. Горская, Н. Ермоленко-Южина, П. Журавленко, В. Касторский, Е. Катульская, М. Максакова, А. Нежданова, Н. Обухова, Л. Собинов, Е. Степанова, Ф. Шаляпин. Пел п/у Н. Голованова, Э. Купера, С. Самосуда, В. Сука, Н. Федорова. В 1912—46 вел конц. деят-сть. Дуэты А. Даргомыжского и М. Глинки неоднократно исп. с А. Неждановой и Л. Собиновым. С 1912 участвовал в концертах Кружка любителей рус. музыки. В 1912 исп. кантату "Весна", в 1913 — "Колокола" С. Рахманинова п/у автора (под его рук. подготовил также ряд романсов). После 1917 принимал активное участие в концертах для рабочих, с 1918 давал сольные концерты (в ансамбле с пианистом В. Ульрихом) в Москве, Ленинграде, Казани, Пензе, Смоленске. В годы Великой Отечественной войны выступал в воинских частях, госпиталях, у моряков Краснознаменного Балтийского флота. В камерном репертуаре насчитывалось св. 500 произв. Конц. программы составлялись из произв. одного-двух композиторов (Глинка и Даргомыжский, Чайковский и Рахманинов) или посвящались определенной теме. В февр. 1937 М. провел в Большом зале Ленингр. филармонии концерт памяти А. Пушкина, в к-ром исп. романсы А. Верстовского, Н. Титова, А. Гурилева, К. Кавоса, М. Глинки, А. Даргомыжского, А. Бородина, Н. Римского-Корсакова, Ц. Кюи, А. Глазунова, Ю. Шапорина ("Заклинание", 1-е исп.), Г. Свиридова ("Роняет лес багряный свой убор", "Подъезжая под Ижоры"; один из первых исп. его романсов); в сезоне 1937/38 — "Вечер итал. арий и неаполитанских серенад"; в июле 1941 — концерт в зале Ленингр. акад. капеллы, посвященный 100-летию со дня гибели М. Лермонтова, в к-ром исп. романсы Н. Титова, А. Варламова, A. Гурилева, А. Даргомыжского, Ц. Кюи, М. Балакирева, А. Рубинштейна. Из зарубеж. классики певец предпочитал произв. Ф. Шуберта (с пианистом К. Игумновым подготовил 12 песен), Э. Грига. В 1941—49 солист. рук. вокальной группы Всесоюзного радиокомитета и консультант вокально-хоровых передач. В 1946 гастролировал с концертами в Баку, Тбилиси, Ереване, Батуми, Сухуми, Кутаиси. В 1948—59 преподавал в Моск. конс. (с 1952 проф.). Ученики: П. Гусев, Н. Дидученко, А. Лазарев, Ю. Мазурок, А. Савченко, А. Тихонов. Принимал активное участие в муз. жизни страны (был членом жюри ряда смотров и вокальных конкурсов, внештатным рецензентом и консультантом ЦГАЛИ по вопросам истории рус. оперного искусства). Записывался на грампластинки. Многие архив. записи М. — в ГЦММК и ГЦТМ.
EAC log
Exact Audio Copy V0.99 prebeta 4 from 23. January 2008
Отчёт EAC об извлечении, выполненном 13. ноября 2009, 17:44
Sergey Migai / Sergey Migai - Russian Romances
Дисковод: HL-DT-STDVDRAM GSA-4167B Adapter: 1 ID: 0
Режим чтения : Достоверность
Использование точного потока : Да
Отключение кэша аудио : Да
Использование указателей C2 : Нет
Коррекция смещения при чтении : 667
Способность читать области Lead-in и Lead-out : Нет
Заполнение пропущенных сэмплов тишиной : Да
Удаление блоков с тишиной в начале и конце : Нет
При вычислениях CRC использовались нулевые сэмплы : Да
Интерфейс : Встроенный Win32-интерфейс для Win NT/2000
Выходной формат : Пользовательский кодировщик
Выбранный битрейт : 1024 kBit/s
Качество : Высокий
Добавление ID3-тэга : Нет
Утилита сжатия : C:\Program Files\Exact Audio Copy\Flac\flac.exe
Дополнительные параметры : -8 -V -T "ARTIST=%a" -T "TITLE=%t" -T "ALBUM=%g" -T "DATE=%y" -T "TRACKNUMBER=%n" -T "GENRE=%m" -T "COMMENT=EAC FLAC -8" %s
TOC извлечённого CD
Трек | Старт | Длительность | Начальный сектор | Конечный сектор
---------------------------------------------------------------------
1 | 0:00.00 | 3:10.63 | 0 | 14312
2 | 3:10.63 | 0:56.01 | 14313 | 18513
3 | 4:06.64 | 1:03.71 | 18514 | 23309
4 | 5:10.60 | 1:55.74 | 23310 | 32008
5 | 7:06.59 | 2:27.51 | 32009 | 43084
6 | 9:34.35 | 3:42.74 | 43085 | 59808
7 | 13:17.34 | 4:26.74 | 59809 | 79832
8 | 17:44.33 | 4:39.00 | 79833 | 100757
9 | 22:23.33 | 1:26.74 | 100758 | 107281
10 | 23:50.32 | 2:24.74 | 107282 | 118155
11 | 26:15.31 | 4:41.00 | 118156 | 139230
12 | 30:56.31 | 1:50.02 | 139231 | 147482
13 | 32:46.33 | 1:46.00 | 147483 | 155432
14 | 34:32.33 | 3:44.74 | 155433 | 172306
15 | 38:17.32 | 3:56.73 | 172307 | 190079
16 | 42:14.30 | 1:43.69 | 190080 | 197873
17 | 43:58.24 | 3:39.00 | 197874 | 214298
18 | 47:37.24 | 2:56.74 | 214299 | 227572
19 | 50:34.23 | 3:07.00 | 227573 | 241597
20 | 53:41.23 | 1:38.00 | 241598 | 248947
21 | 55:19.23 | 1:01.71 | 248948 | 253593
22 | 56:21.19 | 3:53.00 | 253594 | 271068
23 | 60:14.19 | 3:34.57 | 271069 | 287175
24 | 63:49.01 | 1:12.01 | 287176 | 292576
25 | 65:01.02 | 1:53.13 | 292577 | 301064
26 | 66:54.15 | 4:16.01 | 301065 | 320265
27 | 71:10.16 | 1:48.54 | 320266 | 328419
Характеристики диапазона извлечения и сообщения об ошибках
Выбранный диапазон
Имя файла D:\НА ВЫКЛАДКУ\Сергей Мигай - Русский романс\Sergey Migai - Russian Romances.wav
Пиковый уровень 100.0 %
Качество диапазона 99.9 %
CRC копии 68E151D7
Копирование... OK
Ошибок не произошло
AccurateRip: сводка
Трек 1 нет в базе данных
Трек 2 нет в базе данных
Трек 3 нет в базе данных
Трек 4 нет в базе данных
Трек 5 нет в базе данных
Трек 6 нет в базе данных
Трек 7 нет в базе данных
Трек 8 нет в базе данных
Трек 9 нет в базе данных
Трек 10 нет в базе данных
Трек 11 нет в базе данных
Трек 12 нет в базе данных
Трек 13 нет в базе данных
Трек 14 нет в базе данных
Трек 15 нет в базе данных
Трек 16 нет в базе данных
Трек 17 нет в базе данных
Трек 18 нет в базе данных
Трек 19 нет в базе данных
Трек 20 нет в базе данных
Трек 21 нет в базе данных
Трек 22 нет в базе данных
Трек 23 нет в базе данных
Трек 24 нет в базе данных
Трек 25 нет в базе данных
Трек 26 нет в базе данных
Трек 27 нет в базе данных
Ни одного трека нет в базе AccurateRip
Конец отчёта
Не стесняйтесь нажимать на кнопку «Спасибо» внизу этого поста, это «подымает» тему в разделе, предохраняя её от преждевременного отмирания в «Архив»!
Download
Чтобы скачать .torrent файл необходима регистрация
Сайт не распространяет и не хранит электронные версии произведений, а лишь предоставляет доступ к создаваемому пользователями каталогу ссылок на торрент-файлы, которые содержат только списки хеш-сумм
[Профиль]  [ЛС] 
 

sermada

Стаж: 10 лет 5 месяцев

Сообщений: 81

sermada · 17-Ноя-09 15:05 (спустя 3 дня)

На здоровье, всегда рад стараться
[Профиль]  [ЛС] 

Роман Геннадьевич

Стаж: 9 лет 5 месяцев

Сообщений: 16

Роман Геннадьевич · 30-Июл-11 13:42 (спустя 1 год 8 месяцев)

Есть ещё что-нибудь связанное с Эдуардом Губером?
[Профиль]  [ЛС] 

Lourenss

Стаж: 9 лет 2 месяца

Сообщений: 11


Lourenss · 10-Окт-11 18:35 (спустя 2 месяца 11 дней)

Почему не скачывается? Что сылка мертва?
[Профиль]  [ЛС] 

Firststeping

Стаж: 11 лет 3 месяца

Сообщений: 9

Firststeping · 22-Фев-13 13:46 (спустя 1 год 4 месяца, ред. 22-Фев-13 13:46)

на тайтл ругается, но режет
скрытый текст
REM GENRE Vocal
REM DATE 2006
REM DISCID 91111A1B
REM COMMENT "ExactAudioCopy v0.99pb4"
PERFORMER "Сергей Мигай"
TITLE "Сергей Мигай - Русский романс"
FILE "Sergey Migai - Russian Romances.flac" WAVE
TRACK 01 AUDIO
TITLE "Оправдание (А. Гурилев; М. Лермонтов)"
PERFORMER "Сергей Мигай"
INDEX 01 00:00:00
TRACK 02 AUDIO
TITLE "Ты и вы (А. Гурилев; А. Пушкин)"
PERFORMER "Сергей Мигай"
INDEX 01 03:10:63
TRACK 03 AUDIO
TITLE "Признание (М. Глинка; А. Пушкин)"
PERFORMER "Сергей Мигай"
INDEX 01 04:06:64
TRACK 04 AUDIO
TITLE "Ночной зефир (М. Глинка; А. Пушкин)"
PERFORMER "Сергей Мигай"
INDEX 01 05:10:60
TRACK 05 AUDIO
TITLE "Забуду ль я (М. Глинка; С. Голицын)"
PERFORMER "Сергей Мигай"
INDEX 01 07:06:59
TRACK 06 AUDIO
TITLE "Вы не придете вновь (дуэт) (М. Глинка; П. Дубровский)"
PERFORMER "Сергей Мигай"
INDEX 01 09:34:35
TRACK 07 AUDIO
TITLE "Элегия (дуэт) (М. Глинка; Е. Баратынский)"
PERFORMER "Сергей Мигай"
INDEX 01 13:17:34
TRACK 08 AUDIO
TITLE "Прости меня, прости (дуэт) (обр. М. Глинки; А.Булгаков, П.Федоров) "
PERFORMER "Сергей Мигай"
INDEX 01 17:44:33
TRACK 09 AUDIO
TITLE "За окном в тени мелькает (П. Булахов; Я. Полонский)"
PERFORMER "Сергей Мигай"
INDEX 00 22:23:32
INDEX 01 22:23:33
TRACK 10 AUDIO
TITLE "К Морфею (Н.Титов; А. Пушкин)"
PERFORMER "Сергей Мигай"
INDEX 01 23:50:32
TRACK 11 AUDIO
TITLE "Талисман (Н. Титов; А. Пушкин)"
PERFORMER "Сергей Мигай"
INDEX 01 26:15:31
TRACK 12 AUDIO
TITLE "Твоих признаний (Н. Титов; А. Пушкин)"
PERFORMER "Сергей Мигай"
INDEX 01 30:56:31
TRACK 13 AUDIO
TITLE "Горные вершины (Н. Титов; М. Лермонтов)"
PERFORMER "Сергей Мигай"
INDEX 01 32:46:33
TRACK 14 AUDIO
TITLE "Завещание (Э. Лангер; М. Лермонтов)"
PERFORMER "Сергей Мигай"
INDEX 01 34:32:33
TRACK 15 AUDIO
TITLE "Элегия ("Душа моя мрачна") (Н. Дмитриев; М. Лермонтов)"
PERFORMER "Сергей Мигай"
INDEX 01 38:17:32
TRACK 16 AUDIO
TITLE "Безумно жаждать твоей встречи (дуэт) (А. Даргомыжский; Э. Губер)"
PERFORMER "Сергей Мигай"
INDEX 01 42:14:30
TRACK 17 AUDIO
TITLE "Как небеса, твой взор блистает (А. Серов; М. Лермонтов)"
PERFORMER "Сергей Мигай"
INDEX 01 43:58:24
TRACK 18 AUDIO
TITLE "В темной роще замолк соловей (Н. Римский-Корсаков; И. Никитин)"
PERFORMER "Сергей Мигай"
INDEX 01 47:37:24
TRACK 19 AUDIO
TITLE "Ночь (Н. Римский-Корсаков; А. Плещеев)"
PERFORMER "Сергей Мигай"
INDEX 01 50:34:23
TRACK 20 AUDIO
TITLE "Мой голос для тебя... (Н. Римский-Корсаков; А. Пушкин)"
PERFORMER "Сергей Мигай"
INDEX 01 53:41:23
TRACK 21 AUDIO
TITLE "Я верю, я любим (Н.Римский-Корсаков; А.Пушкин)"
PERFORMER "Сергей Мигай"
INDEX 01 55:19:23
TRACK 22 AUDIO
TITLE "Грезы (дуэт) (А. Гречанинов; А. Мейснер (из В. Гюго))"
PERFORMER "Сергей Мигай"
INDEX 00 56:21:18
INDEX 01 56:21:19
TRACK 23 AUDIO
TITLE "Сон (М. Балакирев; М. Лермонтов)"
PERFORMER "Сергей Мигай"
INDEX 01 60:14:19
TRACK 24 AUDIO
TITLE "Слышу ли голос твой (М. Балакирев; М. Лермонтов)"
PERFORMER "Сергей Мигай"
INDEX 01 63:49:01
TRACK 25 AUDIO
TITLE "Из-под таинственной холодной полумаски (М. Балакирев; М. Лермонтов)"
PERFORMER "Сергей Мигай"
INDEX 01 65:01:02
TRACK 26 AUDIO
TITLE "Роняет лес багряный свой убор (Г. Свиридов; А. Пушкин)"
PERFORMER "Сергей Мигай"
INDEX 01 66:54:15
TRACK 27 AUDIO
TITLE "Подъезжая под Ижоры (Г. Свиридов; А. Пушкин)"
PERFORMER "Сергей Мигай"
INDEX 01 71:10:16
[Профиль]  [ЛС] 

CreedWithGod

Стаж: 8 лет 9 месяцев

Сообщений: 108


CreedWithGod · 26-Апр-13 14:40 (спустя 2 месяца 4 дня)

Может у кого есть возможность выложить следующих певцов, которых ОЧЕНЬ ищу:
Кипрас Петраускас(лир-драм тенор), Юозас Мажейка(баритон), Максимилиан Максаков(драм баритон), Иоаким Тартаков(драм баритон), Сергей Мигай(лир баритон), Умберто Урбано(баритон), Михаил Каракаш(баритон), Александр Давыдов(Израиль Моисеевич Левенсон-лир тенор), Владимир Ивановский(тенор), Давид Южин(лир-драм тенор), Андрей Лабинский(тенор), Иван Паторжинский(бас профундо), Иван Яшугин(бас), Пантелеймон Норцов(лир баритон), Андрей Иванов(баритон), Александр Пирагов(бас), Платон Цесеревич(бас кантанте), Юрий Вишняков(бас профундо), Сергей Преображенский(бас профундо), Антуан Понсне(тенор), Василий Петров(бас), Дмитрий Бухтояров(бас), Дино Борджоли(тенор), Лев Сибиряков(высокий бас), Джакомо Лаури-Волпи(тенор), Виргилиус Нореёка(лир тенор, ученик К.Петраускаса), Влидимир Атлантов(лир-драм тенор), Ирина Архипова(меццо сопрано),Тамара Синявская(меццо сопрано), Николай Охотников(бас), Лев Морозов(тенор),Мирелла Френи(сопрано), Рената Скотто(сопрано),Дмитрий Хворостовский(баритон),Мазини(тенор), Франческо Маркони(тенор), Антонио Катоньи(баритон), Антонио Маджини- Колетти(баритон), Маттиа Баттистини(баритон), Фернандо Де Лючия(тенор), Алессандро Бончи(тенор), Мария Малибран(колоратурное меццо сопрано), Джудитта Гризи(меццо сопрано), Джулия Гризи(сопрано), Джованни Марио(тенор), Адольф Нурри(тенор), Жильбер Дюпре(тенор), Антонио Тамбурини(баритон), Герман Ядловкер(лир драм тенор), Джованни Баттиста Рубини(тенор).
Интересует, также, литература о данных исполнителях.
[Профиль]  [ЛС] 
 
Ответить
Loading...
Error