(Progressive) Genesis - A Trick of the Tail (Japan Hybrid SACD) - 2007, FLAC (tracks+.cue), lossless

Страницы:  1

Ответить
Автор
Сообщение

mgubarenko

Стаж: 10 лет

Сообщений: 359


mgubarenko · 07-Апр-10 11:39 (8 лет 6 месяцев назад, ред. 18-Апр-18 16:06)

Genesis - A Trick of the Tail (Japan Hybrid SACD)
Жанр: Progressive Rock
Год выпуска диска: 2007
Производитель диска: Japan
Аудио кодек: FLAC
Тип рипа: tracks+.cue
Битрейт аудио: lossless
Трэклист:
1. DANCE ON A VOLCANO
2. ENTANGLED
3. SQUONK
4. MAD MAN MOON
5. ROBBERY. ASSAULT & BATTERY
6. RIPPLES...
7. A TRICK OF THE TAIL
8. LOS ENDOS
XLD Log
X Lossless Decoder version 20100323 (116.7)
XLD extraction logfile from 2010-04-07 14:04:16 +0600
Genesis / A Trick of the Tail
Used drive : OPTIARC DVD RW AD-5670S (revision 2AHH)
Use cdparanoia mode : YES (CDParanoia III 10.2 engine)
Disable audio cache : OK for the drive with cache less than 2750KB
Make use of C2 pointers : NO
Read offset correction : 48
Max retry count : 100
TOC of the extracted CD
Track | Start | Length | Start sector | End sector
---------------------------------------------------------
1 | 00:01:00 | 05:57:47 | 75 | 26896
2 | 05:58:47 | 06:27:30 | 26897 | 55951
3 | 12:26:02 | 06:30:33 | 55952 | 85234
4 | 18:56:35 | 07:35:22 | 85235 | 119381
5 | 26:31:57 | 06:18:66 | 119382 | 147797
6 | 32:50:48 | 08:05:35 | 147798 | 184207
7 | 40:56:08 | 04:35:07 | 184208 | 204839
8 | 45:31:15 | 05:52:18 | 204840 | 231257
List of alternate offset correction values
# | Absolute | Relative | Confidence
------------------------------------------
1 | 36 | -12 | 96
2 | -616 | -664 | 6
Track 01
Filename : /Users/gubarenko/Desktop/Genesis - A Trick of the Tail/01 - Dance on a Volcano.flac
Pre-gap length : 00:03:00
CRC32 hash (test run) : F4DABEEB
CRC32 hash : F4DABEEB
CRC32 hash (skip zero) : FAC0F4D7
AccurateRip signature : B0735095
->Accurately ripped! (confidence 46)
Statistics
Read error : 0
Skipped (treated as error) : 0
Edge jitter error (maybe fixed) : 0
Atom jitter error (maybe fixed) : 0
Drift error (maybe fixed) : 0
Dropped bytes error (maybe fixed) : 0
Duplicated bytes error (maybe fixed) : 0
Inconsistency in error sectors : 0
Track 02
Filename : /Users/gubarenko/Desktop/Genesis - A Trick of the Tail/02 - Entangled.flac
CRC32 hash (test run) : 1BB32F74
CRC32 hash : 1BB32F74
CRC32 hash (skip zero) : F3EEB522
AccurateRip signature : 546888AC
->Accurately ripped! (confidence 48)
Statistics
Read error : 0
Skipped (treated as error) : 0
Edge jitter error (maybe fixed) : 0
Atom jitter error (maybe fixed) : 0
Drift error (maybe fixed) : 0
Dropped bytes error (maybe fixed) : 0
Duplicated bytes error (maybe fixed) : 0
Inconsistency in error sectors : 0
Track 03
Filename : /Users/gubarenko/Desktop/Genesis - A Trick of the Tail/03 - Squonk.flac
CRC32 hash (test run) : D12D6484
CRC32 hash : D12D6484
CRC32 hash (skip zero) : DF0F9DEC
AccurateRip signature : 59E60ABC
->Accurately ripped! (confidence 48)
Statistics
Read error : 0
Skipped (treated as error) : 0
Edge jitter error (maybe fixed) : 0
Atom jitter error (maybe fixed) : 0
Drift error (maybe fixed) : 0
Dropped bytes error (maybe fixed) : 0
Duplicated bytes error (maybe fixed) : 0
Inconsistency in error sectors : 0
Track 04
Filename : /Users/gubarenko/Desktop/Genesis - A Trick of the Tail/04 - Mad Man Moon.flac
CRC32 hash (test run) : 8B161E55
CRC32 hash : 8B161E55
CRC32 hash (skip zero) : F0E3EA14
AccurateRip signature : 4B3092EB
->Accurately ripped! (confidence 48)
Statistics
Read error : 0
Skipped (treated as error) : 0
Edge jitter error (maybe fixed) : 0
Atom jitter error (maybe fixed) : 0
Drift error (maybe fixed) : 0
Dropped bytes error (maybe fixed) : 0
Duplicated bytes error (maybe fixed) : 0
Inconsistency in error sectors : 0
Track 05
Filename : /Users/gubarenko/Desktop/Genesis - A Trick of the Tail/05 - Robbery, Assault and Battery.flac
CRC32 hash (test run) : DAF2FFD8
CRC32 hash : DAF2FFD8
CRC32 hash (skip zero) : 5B011F8F
AccurateRip signature : 02102E1C
->Accurately ripped! (confidence 48)
Statistics
Read error : 0
Skipped (treated as error) : 0
Edge jitter error (maybe fixed) : 0
Atom jitter error (maybe fixed) : 0
Drift error (maybe fixed) : 0
Dropped bytes error (maybe fixed) : 0
Duplicated bytes error (maybe fixed) : 0
Inconsistency in error sectors : 0
Track 06
Filename : /Users/gubarenko/Desktop/Genesis - A Trick of the Tail/06 - Ripples.flac
CRC32 hash (test run) : 7458047C
CRC32 hash : 7458047C
CRC32 hash (skip zero) : 5B313955
AccurateRip signature : CBFE12D0
->Accurately ripped! (confidence 47)
Statistics
Read error : 0
Skipped (treated as error) : 0
Edge jitter error (maybe fixed) : 0
Atom jitter error (maybe fixed) : 0
Drift error (maybe fixed) : 0
Dropped bytes error (maybe fixed) : 0
Duplicated bytes error (maybe fixed) : 0
Inconsistency in error sectors : 0
Track 07
Filename : /Users/gubarenko/Desktop/Genesis - A Trick of the Tail/07 - A Trick of the Tail.flac
CRC32 hash (test run) : 03CC531C
CRC32 hash : 03CC531C
CRC32 hash (skip zero) : 92DC1F45
AccurateRip signature : 981E3F10
->Accurately ripped! (confidence 47)
Statistics
Read error : 0
Skipped (treated as error) : 0
Edge jitter error (maybe fixed) : 0
Atom jitter error (maybe fixed) : 0
Drift error (maybe fixed) : 0
Dropped bytes error (maybe fixed) : 0
Duplicated bytes error (maybe fixed) : 0
Inconsistency in error sectors : 0
Track 08
Filename : /Users/gubarenko/Desktop/Genesis - A Trick of the Tail/08 - Los Endos.flac
CRC32 hash (test run) : 47EFEABD
CRC32 hash : 47EFEABD
CRC32 hash (skip zero) : 60C3485B
AccurateRip signature : 46DFEC89
->Accurately ripped! (confidence 47)
Statistics
Read error : 0
Skipped (treated as error) : 0
Edge jitter error (maybe fixed) : 0
Atom jitter error (maybe fixed) : 0
Drift error (maybe fixed) : 0
Dropped bytes error (maybe fixed) : 0
Duplicated bytes error (maybe fixed) : 0
Inconsistency in error sectors : 0
No errors occurred
End of status report
CUE
TITLE "A Trick of the Tail"
PERFORMER "Genesis"
CATALOG 0094638596424
REM GENRE "Rock"
REM DATE 1976
FILE "01 - Dance on a Volcano.wav" WAVE
TRACK 01 AUDIO
TITLE "Dance on a Volcano"
ISRC GBAAA0700001
INDEX 00 00:00:00
INDEX 01 00:01:00
FILE "02 - Entangled.wav" WAVE
TRACK 02 AUDIO
TITLE "Entangled"
ISRC GBAAA0700002
INDEX 01 00:00:00
FILE "03 - Squonk.wav" WAVE
TRACK 03 AUDIO
TITLE "Squonk"
ISRC GBAAA0700003
INDEX 01 00:00:00
FILE "04 - Mad Man Moon.wav" WAVE
TRACK 04 AUDIO
TITLE "Mad Man Moon"
ISRC GBAAA0700004
INDEX 01 00:00:00
FILE "05 - Robbery, Assault and Battery.wav" WAVE
TRACK 05 AUDIO
TITLE "Robbery, Assault and Battery"
ISRC GBAAA0700005
INDEX 01 00:00:00
FILE "06 - Ripples.wav" WAVE
TRACK 06 AUDIO
TITLE "Ripples"
ISRC GBAAA0700006
INDEX 01 00:00:00
FILE "07 - A Trick of the Tail.wav" WAVE
TRACK 07 AUDIO
TITLE "A Trick of the Tail"
ISRC GBAAA0700007
INDEX 01 00:00:00
FILE "08 - Los Endos.wav" WAVE
TRACK 08 AUDIO
TITLE "Los Endos"
ISRC GBAAA0700008
INDEX 01 00:00:00
TOGP-15011
Диск куплен тут.
Download
Чтобы скачать .torrent файл необходима регистрация
Сайт не распространяет и не хранит электронные версии произведений, а лишь предоставляет доступ к создаваемому пользователями каталогу ссылок на торрент-файлы, которые содержат только списки хеш-сумм
[Профиль]  [ЛС] 
 

mgubarenko

Стаж: 10 лет

Сообщений: 359


mgubarenko · 07-Апр-10 11:43 (спустя 3 мин.)

[Цитировать] 

ой, ой!
Случайно промахнулся! Перенесите пожалуйста!!!
[Профиль]  [ЛС] 

bruno1942

Стаж: 8 лет 3 месяца

Сообщений: 659

bruno1942 · 26-Сен-14 19:54 (спустя 4 года 5 месяцев)

[Цитировать] 

Я понимаю, что ругать Фила Коллинза - это хороший тон. Но разве он здесь сплоховал? Ведь ему пришлось заменить самого Гэбриела, и он справился очень даже неплохо. А музыка на альбоме по-прежнему хороша. Так что нужно благодарить этого самого Коллинза за то, что после ухода Гэбриела Genesis не кончился. Ну, во всяком случае, не сразу. Пока Хэккет не отчалил, группа успела выдать еще два отличных диска, а это немало!
[Профиль]  [ЛС] 

*Vortexxx*

Стаж: 10 лет 10 месяцев

Сообщений: 3962

*Vortexxx* · 18-Апр-15 18:13 (спустя 6 месяцев)

[Цитировать] 

bruno1942
А кто отзывается плохо о Коллинзе? Диск отличный. Мне нравится не меньше, чем альбомы с Гейбриэлом.
[Профиль]  [ЛС] 

wassermann1000

Стаж: 5 лет 11 месяцев

Сообщений: 2


wassermann1000 · 06-Янв-16 23:16 (спустя 8 месяцев)

[Цитировать] 

Это Genesis, и музыка божественна! Прекрасный альбом! Прошло всего 40 лет. Почти столько же, сколько и мне.
[Профиль]  [ЛС] 

Vlattenham

Стаж: 8 лет 9 месяцев

Сообщений: 341

Vlattenham · 07-Янв-16 13:29 (спустя 14 часов)

[Цитировать] 

А мне 24, и A Trick of the Tail один из моих самых любимых альбомов, если вообще не самый)
[Профиль]  [ЛС] 

Igor1956894321

Стаж: 2 года 6 месяцев

Сообщений: 139


Igor1956894321 · 09-Апр-18 04:14 (спустя 2 года 3 месяца)

[Цитировать] 

A Trick of the Tail один из самых любимых альбомов, а одноимённая песня с него - это шедевр. Вот решил сделать свою стихотворную версию A Trick of The Tail...
скрытый текст
Скучая, он бросил из золота дом.
Куда и зачем, толком не зная
Знакомые башни скрыл сумрачный холм,
Он уходил о неясном мечтая.
Путешествуя он прошёл много дорог
Мосты за собою сжигая,
Там хорошо, где нас нет. Это гонка без края.
Им овладела тоска: никому не добраться до Рая.
Припев:
У них рогов нет и они без хвоста.
Они даже не знают, что где-то мы есть.
Получил по заслугам я неспроста.
Поздно понял: теперь же я - здесь!
Его посадили как пса за барьер
«Зверь говорящий» написали под ним.
Не раз существа посещали вольер,
Слушали речи, недовольные им.
Но скоро зевакам надоел этот зверь
Тварь говорит - в том какой толк?
Полезнее конь, ему не в пример,
Обычный урод, а скорее - прикол.
Припев:
У них рогов нет и они без хвоста.
Они даже не знают, что где-то мы есть.
Получил по заслугам я неспроста.
Поздно понял: в ушко не пролезть!
Дверь клетки сорвал он с петель, теперь пусть закроют.
Сграбастал за шкирку одного из людей.
Обвёл вкруг пространство свободной рукой:
Правды от вас я не скрою.
Там за горами мой город лежит, храмы золотом кроют.
Фантазиям вашим не хватит идей.
Пойдёмте со мною к сказке скорей:
Может, поймёте, чего я, - тварь божия, - стою.
Припев:
У них рогов нет и они без хвоста.
Они даже не знают, что где-то мы есть.
Получил по заслугам я неспроста.
Поздно понял: в ушко не пролезть!
Отправились скоро со зверем в поход,
На чудные сказки поддавшись.
И вот, наконец, меж горами проход.
Указал он вперёд, над толпою поднявшись.
Проследив его взгляд, смутился народ:
То не город златой, - солнца лик воссиявший.
Но зверь вдруг исчез, - смешной оборот,
Только голос его, неизвестно откуда звучавший.
Припев:
У вас рогов нет и вы без хвоста.
Вы даже не знаете, что где-то мы есть.
Я вас сюда привёл неспроста.
Поймите друзья: дом ваш – здесь!
[Профиль]  [ЛС] 

Яакимов

Стаж: 9 лет 9 месяцев

Сообщений: 199


Яакимов · 22-Сен-18 19:10 (спустя 5 месяцев 13 дней)

[Цитировать] 

а можно всё-таки перенести в другой раздел? Там и текстовку почитаем
[Профиль]  [ЛС] 

*Vortexxx*

Стаж: 10 лет 10 месяцев

Сообщений: 3962

*Vortexxx* · 22-Сен-18 21:42 (спустя 2 часа 32 мин.)

[Цитировать] 

Яакимов
А в какой - в другой? И чем этот раздел не подходит? Genesis перестал быть прогом?
[Профиль]  [ЛС] 

bvbt

Стаж: 9 лет 3 месяца

Сообщений: 62

bvbt · 10-Окт-18 13:37 (спустя 17 дней)

[Цитировать] 

Проделки хвоста. Прям как одноименный фильм с Хоффманом.
[Профиль]  [ЛС] 
 
Ответить
Loading...
Error