Адрес РуТрекера для пользователей РФ - 11.MainTracker.org

Расскажи друзьям:  

Адрес РуТрекера для пользователей РФ - 11.MainTracker.org

Расскажи друзьям:  

Земля любви, Земля надежды / Terra Speranza / серии 001-220 из 220 (avi) (Луис Фернанду Карвальо) [2002, Бразилия, историческая мелодрама, TVRip]

Ответить
Автор
Сообщение

Daster91

Стаж: 6 лет 9 месяцев

Сообщений: 1


Daster91 · 11-Апр-14 08:32 (5 лет 6 месяцев назад)

Народ, помогите пожалуйста!!! хотел глянуть на телике данный сериал, но он из 220 серий воспроизводит всего парочку... 35 и еще какую то. Сравнил avi:
File: Terra_Esperanza_1.avi
FileSize: 471.03 Mb ( 493 914 310 bytes )
Play length: 00:50:19.919 (75498 frames)
Subtitles: Not Present
Video: 512x384 (1.33:1), 25 fps, XviD build 47 ~1198 kbps avg, 0.24 bit/pixel
Audio: 48 kHz, MPEG Layer 3, 2 ch, ~96.00 kbps avg
File: Terra_Esperanza_35.avi
FileSize: 434.29 Mb ( 455 387 668 bytes )
Play length: 00:46:24.040 (69601 frames)
Subtitles: Not Present
Video: 512x384 (1.33:1), 25 fps, XviD build 47 ~1199 kbps avg, 0.24 bit/pixel
Audio: 48 kHz, MPEG Layer 3, 2 ch, ~96.00 kbps avg
одинаковые, не могу разобраться в чем дело(((( help me plissssss
[Профиль]  [ЛС] 

julia.net1988

Стаж: 8 лет 2 месяца

Сообщений: 45

julia.net1988 · 05-Июл-14 15:54 (спустя 2 месяца 24 дня)

GOSPODIN Z писал(а):
53776699
kvazemoda11 писал(а):
тоже тормозит (((( почему???
И у меня тормозит... Сделайте еще один рип, пожалуйста. На компьютере нормально показывает, а на дивиди и телевизоре не тянет.
та же проблема
[Профиль]  [ЛС] 

chatterer

Стаж: 11 лет 2 месяца

Сообщений: 1

chatterer · 10-Авг-14 18:05 (спустя 1 месяц 5 дней)

Подскажите, в какой серии Рауль Кортез(Женаро) играет на пианино, то ли в баре, то ли в магазине(как помню это последнии серии), Тони слышит и подходит к окну, потом когда они встречаются взглядами, Женаро начинает плакать?!
[Профиль]  [ЛС] 

Джейн543

Стаж: 7 лет 7 месяцев

Сообщений: 9


Джейн543 · 11-Янв-15 13:05 (спустя 5 месяцев)

Подскажите пожалуйста, у меня двд не воспроизводит сериал и usb тоже, пишет, что видео не поддерживается, что делать? Так хочется посмотреть этот прекрасный сериал.
[Профиль]  [ЛС] 

Legioner_

Стаж: 8 лет 10 месяцев

Сообщений: 180

Legioner_ · 05-Фев-15 17:30 (спустя 25 дней)

julia.net1988 писал(а):
64458718
GOSPODIN Z писал(а):
53776699
kvazemoda11 писал(а):
тоже тормозит (((( почему???
И у меня тормозит... Сделайте еще один рип, пожалуйста. На компьютере нормально показывает, а на дивиди и телевизоре не тянет.
та же проблема
Та же хрень блин три дня тянул и
[Профиль]  [ЛС] 

lexa armeec

Стаж: 4 года 1 месяц

Сообщений: 1


lexa armeec · 13-Окт-15 19:17 (спустя 8 месяцев, ред. 13-Окт-15 19:17)

DonPedro222 привет сколько всего серий в этом сериале одни говорят 250 заранее благодарю за ответ
[Профиль]  [ЛС] 

A121351

Стаж: 9 лет 1 месяц

Сообщений: 2


A121351 · 01-Дек-15 17:50 (спустя 1 месяц 17 дней)

почему сериии не попорядку идут
[Профиль]  [ЛС] 

sbrhgn

Стаж: 2 года 9 месяцев

Сообщений: 20

sbrhgn · 08-Янв-17 21:03 (спустя 1 год 1 месяц)

"Спасибо", что рассказалаи в описании половину сериала.
[Профиль]  [ЛС] 

misterialein

Стаж: 5 лет 10 месяцев

Сообщений: 1


misterialein · 16-Мар-17 23:18 (спустя 2 месяца 8 дней)

Простите, кто может встаньте на раздачу, пожалуйста, а то бабушке смотреть нечего
[Профиль]  [ЛС] 

Leon604

Стаж: 8 лет 10 месяцев

Сообщений: 59


Leon604 · 06-Май-17 12:01 (спустя 1 месяц 20 дней, ред. 06-Май-17 12:01)

Джейн543 писал(а):
66490254Подскажите пожалуйста, у меня двд не воспроизводит сериал и usb тоже, пишет, что видео не поддерживается, что делать? Так хочется посмотреть этот прекрасный сериал.
Этот сериал не будет воспроизводиться на DVD и с USB, так как при кодировании не была отключена опция gmc
MI
Общее
Полное имя : D:\...\Земля любви, земля надежды\Terra_Esperanza_1.avi
Формат : AVI
Формат/Информация : Audio Video Interleave
Размер файла : 471 Мбайт
Продолжительность : 50 м.
Общий поток : 1308 Кбит/сек
Программа кодирования : MediaCoder 0.6
Видео
Идентификатор : 0
Формат : MPEG-4 Visual
Профиль формата : Advanced Simple@L5
Параметр BVOP формата : Нет
Параметр QPel формата : Нет
Параметр GMC формата : 3 точки перехода
Параметр матрицы формата : Default (H.263)
Идентификатор кодека : XVID
Идентификатор кодека/Подсказка : XviD
Продолжительность : 50 м.
Битрейт : 1200 Кбит/сек
Ширина : 512 пикселей
Высота : 384 пикселя
Соотношение сторон : 4:3
Частота кадров : 25,000 кадров/сек
Цветовое пространство : YUV
Субдискретизация насыщенности : 4:2:0
Битовая глубина : 8 бит
Тип развёртки : Прогрессивная
Метод сжатия : С потерями
Бит/(Пиксели*Кадры) : 0.244
Размер потока : 432 Мбайт (92%)
Библиотека кодирования : XviD 1.2.0.dev47 (UTC 2006-11-01)
Аудио
Идентификатор : 1
Формат : MPEG Audio
Версия формата : Version 1
Профиль формата : Layer 3
Режим : Joint stereo
Расширение режима : MS Stereo
Идентификатор кодека : 55
Идентификатор кодека/Подсказка : MP3
Продолжительность : 50 м.
Вид битрейта : Постоянный
Битрейт : 96,0 Кбит/сек
Каналы : 2 канала
Частота : 48,0 КГц
Метод сжатия : С потерями
Размер потока : 34,6 Мбайт (7%)
Выравнивание : Соединение по промежуткам
Продолжительность промежутка : 24 мс. (0,60 видеокадр)
Время предзагрузки промежутка : 504 мс.
Критерии присвоения статусов # сомнительно и T временная
Цитата:
при кодировании видео были задействованы опции qpel или gmc, или использовано более двух b-кадров, или видео закодировано как чересстрочное
[Профиль]  [ЛС] 

Igorx1989

Стаж: 1 год 6 месяцев

Сообщений: 1


Igorx1989 · 04-Апр-18 19:28 (спустя 10 месяцев, ред. 04-Апр-18 19:28)

Дайте скорости пожалуйста !!!
Совсем не качает ничего...
Так хочется пересмотреть сериал. Плиз !!!
[Профиль]  [ЛС] 

Gaara555

Стаж: 9 лет 9 месяцев

Сообщений: 133


Gaara555 · 02-Ноя-18 22:24 (спустя 6 месяцев)

сделайте рип с 8 канала, скоро там начнется это сериал, чтобы он наконец то везде стал воспроизводится, да и может качество получше будет!
[Профиль]  [ЛС] 

игорь 25

Стаж: 4 года 7 месяцев

Сообщений: 201


игорь 25 · 03-Фев-19 14:23 (спустя 3 месяца)

почему скриншотов не видно?
[Профиль]  [ЛС] 
 
 
Ответить
Loading...
Error