Адрес РуТрекера для пользователей РФ - MainTracker.org

Расскажи друзьям:  

(Фолк) Habrera Hativeet - David and Salomon - 1994, FLAC (image+.cue), lossless

Страницы:  1

Ответить
Автор
Сообщение

vitutster

Стаж: 9 лет 1 месяц

Сообщений: 26

vitutster · 08-Окт-10 03:28 (7 лет 9 месяцев назад, ред. 27-Окт-12 15:10)

Habrera Hativeet - David and Salomon
Жанр: Фолк
Год выпуска диска: 1994
Производитель диска: Израиль
Аудио кодек: FLAC
Тип рипа: image+.cue
Битрейт аудио: lossless
Продолжительность: 1:13:41
Треклист:
01 Haleluya
02 Kol Mehashamayim
03 Etzlenu Bekfar Tudra
04 Belibcha
05 Shadmati
06 Al Tashlicheni
07 Shmor Al Haolam
08 Shaar Harahamim
09 Shir Lashalom
10 Ahuvat Hasapan
11 Keta Instrumentali
12 Tfila
13 Baa Meahava
14 Tfila
15 Hu Yavo
Доп. информация: обновленная страника
EAC log
Exact Audio Copy V0.99 prebeta 4 from 23. January 2008
Отчёт EAC об извлечении, выполненном 8. октября 2010, 3:29
Habrera Hativeet / David and Salomon
Дисковод: Optiarc DVD RW AD-7201S Adapter: 2 ID: 0
Режим чтения : Достоверность
Использование точного потока : Да
Отключение кэша аудио : Нет
Использование указателей C2 : Нет
Коррекция смещения при чтении : 48
Способность читать области Lead-in и Lead-out : Нет
Заполнение пропущенных сэмплов тишиной : Да
Удаление блоков с тишиной в начале и конце : Нет
При вычислениях CRC использовались нулевые сэмплы : Да
Интерфейс : Установленный внешний ASPI-интерфейс
Выходной формат : Внутренние WAV-операции
Формат сэмплов : 44.100 Гц; 16 бит; стерео
TOC извлечённого CD
Трек | Старт | Длительность | Начальный сектор | Конечный сектор
---------------------------------------------------------------------
1 | 0:00.00 | 4:09.40 | 0 | 18714
2 | 4:09.40 | 4:49.00 | 18715 | 40389
3 | 8:58.40 | 5:42.02 | 40390 | 66041
4 | 14:40.42 | 3:23.15 | 66042 | 81281
5 | 18:03.57 | 7:57.40 | 81282 | 117096
6 | 26:01.22 | 5:03.38 | 117097 | 139859
7 | 31:04.60 | 4:25.00 | 139860 | 159734
8 | 35:29.60 | 4:04.62 | 159735 | 178096
9 | 39:34.47 | 6:18.70 | 178097 | 206516
10 | 45:53.42 | 4:37.73 | 206517 | 227364
11 | 50:31.40 | 4:49.37 | 227365 | 249076
12 | 55:21.02 | 4:00.35 | 249077 | 267111
13 | 59:21.37 | 4:03.30 | 267112 | 285366
14 | 63:24.67 | 6:23.63 | 285367 | 314154
15 | 69:48.55 | 3:53.10 | 314155 | 331639
Характеристики диапазона извлечения и сообщения об ошибках
Выбранный диапазон
Имя файла C:\Documents and Settings\Admin\Рабочий стол\temp\Habrera Hativeet - David and Salomon.wav
Пиковый уровень 100.0 %
Качество диапазона 100.0 %
CRC копии 5EB9BB37
Копирование... OK
Ошибок не произошло
AccurateRip: сводка
Трек 1 нет в базе данных
Трек 2 нет в базе данных
Трек 3 нет в базе данных
Трек 4 нет в базе данных
Трек 5 нет в базе данных
Трек 6 нет в базе данных
Трек 7 нет в базе данных
Трек 8 нет в базе данных
Трек 9 нет в базе данных
Трек 10 нет в базе данных
Трек 11 нет в базе данных
Трек 12 нет в базе данных
Трек 13 нет в базе данных
Трек 14 нет в базе данных
Трек 15 нет в базе данных
Ни одного трека нет в базе AccurateRip
Конец отчёта
Это обещаный на этой раздаче лосслесс.
Download
Чтобы скачать .torrent файл необходима регистрация
Сайт не распространяет и не хранит электронные версии произведений, а лишь предоставляет доступ к создаваемому пользователями каталогу ссылок на торрент-файлы, которые содержат только списки хеш-сумм
[Профиль]  [ЛС] 
 

Юра-морячок

VIP (Заслуженный)

Стаж: 9 лет

Сообщений: 11932

Юра-морячок · 08-Окт-10 23:27 (спустя 19 часов)

[Цитировать] 

Цитата:
Отключение кэша аудио : Нет
Критерии присвоения статуса "сомнительно" раздачам в музыкальном разделе
# сомнительно
[Профиль]  [ЛС] 

vitutster

Стаж: 9 лет 1 месяц

Сообщений: 26

vitutster · 11-Окт-10 00:18 (спустя 2 дня)

[Цитировать] 

так этот оптиарк не поддерживает кэш — я чёта не понимаю, видать, — в чем вопрос.
[Профиль]  [ЛС] 

Юра-морячок

VIP (Заслуженный)

Стаж: 9 лет

Сообщений: 11932

Юра-морячок · 11-Окт-10 01:09 (спустя 51 мин.)

[Цитировать] 

Попробуйте почитать вот здесь, и исправить:
http://1.maintracker.org/forum/viewtopic.php?t=2585462
[Профиль]  [ЛС] 

vitutster

Стаж: 9 лет 1 месяц

Сообщений: 26

vitutster · 27-Окт-12 15:12 (спустя 2 года)

[Цитировать] 

Таки-простите мне мою настойчивость — люди просили возобновить раздачу. Оптиарк мой канул в лету вместе со старой машиной, так что перериповать невыйдет никак, нечем...
[Профиль]  [ЛС] 

key37

Стаж: 8 лет 4 месяца

Сообщений: 6


key37 · 25-Дек-13 00:55 (спустя 1 год 1 месяц)

[Цитировать] 

чарующая таинственная чувственная кабалистическая музыка. прекрасно! невозможно оторваться, душа так и просит еще и ещё этих волшебных звуков!
[Профиль]  [ЛС] 

Collector_74

Стаж: 9 лет 2 месяца

Сообщений: 5

Collector_74 · 15-Фев-14 20:43 (спустя 1 месяц 21 день)

[Цитировать] 

Сам БГ в Аэростате № 433 говорит об этих ребятах: ""...Израильский ансамбль Habrera Hativeet - лучше всех хранимая тайна Земли Обетованной. Во главе его стоит свирепый ударник, певец и композитор Шлемо Бар, уроженец Ливана; а в самом коллективе играют музыканты экстра-класса, использующие самые экзотические иструменты Средиземноморья. И казалось бы - вот прямой путь к всенародному успеху; ан нет. Товарищ Бар, в юности принадлежавший к некоторым бескомпромиссным организациям - непримиримый борец с западной культурой, и не раз обьявлял, что людей, играющих музыку в размере 4/4, стоило бы расстреливать, начиная с Майкла Джексона. ..."
Поддержу раздачу.
[Профиль]  [ЛС] 

elektrohexe

Стаж: 5 лет 6 месяцев

Сообщений: 34

elektrohexe · 13-Окт-15 02:51 (спустя 1 год 7 месяцев)

[Цитировать] 

У меня есть 7 дисков Шломо в мр3, нужно кому-нибудь?
[Профиль]  [ЛС] 

Donald MacGillavry

Стаж: 11 лет 6 месяцев

Сообщений: 34

Donald MacGillavry · 01-Фев-16 00:52 (спустя 3 месяца 18 дней)

[Цитировать] 

vitutster
Спасибо за раздачу!
elektrohexe
Я был бы рад послушать ещё что-нибудь из Бара.
[Профиль]  [ЛС] 

bpaul

Стаж: 10 лет 6 месяцев

Сообщений: 10


bpaul · 19-Июн-18 19:06 (спустя 2 года 4 месяца, ред. 19-Июн-18 19:06)

[Цитировать] 

Спасибо за редкую раздачу! На трекере нет больше Habrera Hativeet и Шломо Бара.
Хорошо бы еще ее скачать и послушать
[Профиль]  [ЛС] 
 
Ответить
Loading...
Error