Секс у тираннозавров / Tyrannosaurus sex (Габриель Горнелл / Gabriel Gornell) [2010, Документальный, HDTVRip]

Страницы:  1

Ответить
Автор
Сообщение

Last Battle

Top User 06

Стаж: 11 лет 5 месяцев

Сообщений: 755

Last Battle · 03-Янв-11 22:01 (7 лет 10 месяцев назад, ред. 04-Июн-18 09:30)

Секс у тираннозавров / Tyrannosaurus sex
Год выпуска: 2010
Страна: США / Locomotive Entertainment Group, Discovery Communications
Жанр: Документальный
Продолжительность: 00:43:46
Перевод: Профессиональный (полное дублирование)
Русские субтитры: нет
Режиссер: Габриель Горнелл / Gabriel Gornell
Описание: Они господствовали на Земле миллионы лет. По их ископаемым остаткам, отпечаткам мы узнаем как они передвигались и охотились, как они жили и умирали. Но один интимный и загадочный аспект жизни динозавров мы начинаем понимать только сейчас. Один из вопросов на который людям очень интересно получить ответ: как динозавры совокуплялись? При всем множестве зубов и шипов, при их мощи и размерах? Что представляла собой интимная жизнь динозавров? Ученые-палеобиологи с помощью современной компьютерной графики проливают свет на одну из загадок этих огромных существ.
Доп. информация: Релиз студии Кинозал
Автор рипа supernova, автор постера - nyctalus
ВНИМАНИЕ! Возрастное ограничение: только для взрослых (согласно сайта издателя)
Смотрите также: HDTVRip 720p --> http://1.maintracker.org/forum/viewtopic.php?t=3349718
Качество: HDTVRip
Формат: AVI
Видео кодек: XviD
Аудио кодек: AC3
Видео: XviD, 1649 Кбит/с, 704x400, 25 fps
Аудио: Русский (AC3, 2 ch, 192 Кбит/с, 48 kHz), английский (AC3, 6 ch, 384 Кбит/с, 48 kHz)
Скриншоты
MediaInfo
General
Complete name : .avi
Format : AVI
Format/Info : Audio Video Interleave
File size : 701 MiB
Duration : 43mn 46s
Overall bit rate : 2 239 Kbps
Writing application : VirtualDubMod 1.5.10.2 (build 2542/release)
Writing library : VirtualDubMod build 2542/release
Video #0
ID : 0
Format : MPEG-4 Visual
Format profile : [email protected]
Format settings, BVOP : Yes
Format settings, QPel : No
Format settings, GMC : No warppoints
Format settings, Matrix : Custom
Codec ID : XVID
Codec ID/Hint : XviD
Duration : 43mn 46s
Bit rate : 1 649 Kbps
Width : 704 pixels
Height : 400 pixels
Display aspect ratio : 16:9
Frame rate : 25.000 fps
Resolution : 24 bits
Colorimetry : 4:2:0
Scan type : Progressive
Bits/(Pixel*Frame) : 0.234
Stream size : 516 MiB (74%)
Writing library : XviD 1.2.1 (UTC 2008-12-04)
Audio #1
ID : 1
Format : AC-3
Format/Info : Audio Coding 3
Codec ID : 2000
Duration : 43mn 46s
Bit rate mode : Constant
Bit rate : 192 Kbps
Channel(s) : 2 channels
Channel positions : L R
Sampling rate : 48.0 KHz
Stream size : 60.1 MiB (9%)
Alignment : Split accross interleaves
Interleave, duration : 40 ms (1.00 video frame)
Interleave, preload duration : 500 ms
Audio #2
ID : 2
Format : AC-3
Format/Info : Audio Coding 3
Codec ID : 2000
Duration : 43mn 46s
Bit rate mode : Constant
Bit rate : 384 Kbps
Channel(s) : 6 channels
Channel positions : Front: L C R, Surround: L R, LFE
Sampling rate : 48.0 KHz
Stream size : 120 MiB (17%)
Alignment : Split accross interleaves
Interleave, duration : 40 ms (1.00 video frame)
Interleave, preload duration : 500 ms
Download
Чтобы скачать .torrent файл необходима регистрация
Сайт не распространяет и не хранит электронные версии произведений, а лишь предоставляет доступ к создаваемому пользователями каталогу ссылок на торрент-файлы, которые содержат только списки хеш-сумм
[Профиль]  [ЛС] 
 

Hladnorossa

Стаж: 10 лет 7 месяцев

Сообщений: 11

Hladnorossa · 09-Янв-11 18:53 (спустя 5 дней, ред. 09-Янв-11 18:53)

[Цитировать] 

согласно сайтУ издателя, глаза режет))
[Профиль]  [ЛС] 

Last Battle

Top User 06

Стаж: 11 лет 5 месяцев

Сообщений: 755

Last Battle · 11-Янв-11 12:28 (спустя 1 день 17 часов)

[Цитировать] 

Hladnorossa писал(а):
согласно сайтУ издателя, глаза режет))
Это с украинским прононсом
[Профиль]  [ЛС] 

yyrtyrtrtrtu

Стаж: 8 лет 2 месяца

Сообщений: 1


yyrtyrtrtrtu · 11-Янв-11 13:29 (спустя 1 час)

[Цитировать] 

это нужно в порнораздел отправлять
[Профиль]  [ЛС] 

strecpro

Стаж: 8 лет 10 месяцев

Сообщений: 134

strecpro · 12-Янв-11 04:20 (спустя 14 часов)

[Цитировать] 

коллекционирую фильмы о динозаврах... да уж порно динозавров еще не было в коллекции!
[Профиль]  [ЛС] 

sidov200888

Стаж: 8 лет 1 месяц

Сообщений: 70

sidov200888 · 10-Фев-12 15:18 (спустя 1 год)

[Цитировать] 

порево Юрского периуда
[Профиль]  [ЛС] 

bondrex

Стаж: 10 лет 10 месяцев

Сообщений: 221


bondrex · 12-Фев-12 18:32 (спустя 2 дня 3 часа)

[Цитировать] 

Согласно кому чему (дательный падеж) - согласно закону/сайту и т.д. Учите руский язык, не позорьтесь.
[Профиль]  [ЛС] 

tiger.violet

Стаж: 9 лет

Сообщений: 217

tiger.violet · 14-Дек-12 22:28 (спустя 10 месяцев)

[Цитировать] 

если бы выложили видео с собаками или с лошадьми - все бы посчитали это непотребным извращением. а тут даже нельзя с полной уверенностью сказать, сколько этим лет, а вдруг это несовершеннолетние динозавры?!!!
хотя все равно интересно :^)
[Профиль]  [ЛС] 
 
Ответить
Loading...
Error