Адрес РуТрекера для пользователей РФ - 11.MainTracker.org

Расскажи друзьям:  

Анимузыка / Animusic HD (Уэйн Литл / Wayne Litle) [2010, Animated Music, BDRip 720p]

Ответить
Автор
Сообщение

valegorov

Стаж: 12 лет 3 месяца

Сообщений: 98

valegorov · 27-Фев-11 19:08 (8 лет 5 месяцев назад)

Анимузыка / Animusic HD
Страна: США
Жанр: Компьютерная анимация
Продолжительность: 00:41:57
Год выпуска: 2010
Перевод: Не требуется
Русские субтитры: нет
Режиссёр: Уэйн Литл / Wayne Litle
Описание: Серия мультипликационных роликов, сгенерированных компьютером путём анализа MIDI-музыки и сопоставления ей действий и движений объектов, происходящих на экране. Эта технология, суть которой можно кратко описать как «музыка творит анимацию», получила название «MIDImotion».
Треклист:
1. Pipe Dream 3:23
2. Starship Groove 4:05
3. Pogo Sticks 3:20
4. Resonant Chamber 4:30
5. Cathedral Pictures 6:07
6. Pipe Dream 2 3:52
7. Fiber Bundles 5:16
8. Gyro Drums 4:10
9. Heavy Light 7:15
Семпл: http://multi-up.com/441235
Качество: BDRip 720p
Формат: MKV
Видео: MPEG4-AVC, 1280x720, 29.97 fps, 4499 kbps
Аудио: AC3, 48.0 kHz, 6 ch, 448 kbps
Субтитры: Отсутствуют
Подробные технические данные
General
Complete name : Animuzika.(1.serija.iz.9).2010.x264.BDRip(720p)-valegorov.mkv
Format : Matroska
File size : 120 MiB
Duration : 3mn 23s
Overall bit rate : 4 963 Kbps
Movie name : Animusic 1 2010 [ve]
Encoded date : UTC 2011-02-25 04:47:55
Writing application : mkvmerge v4.3.0 ('Escape from the Island') built on Sep 5 2010 10:30:51
Writing library : libebml v1.0.0 + libmatroska v1.0.0
Video
ID : 1
Format : AVC
Format/Info : Advanced Video Codec
Format profile : [email protected]
Format settings, CABAC : Yes
Format settings, ReFrames : 8 frames
Muxing mode : Container [email protected]
Codec ID : V_MPEG4/ISO/AVC
Duration : 3mn 23s
Bit rate : 4 499 Kbps
Width : 1 280 pixels
Height : 720 pixels
Display aspect ratio : 16:9
Frame rate : 29.970 fps
Color space : YUV
Chroma subsampling : 4:2:0
Bit depth : 8 bits
Scan type : Progressive
Bits/(Pixel*Frame) : 0.163
Stream size : 107 MiB (89%)
Title : Animusic 1 2010 [ve]
Writing library : x264 core 112 r1867 22bfd31
Encoding settings : cabac=1 / ref=8 / deblock=1:-2:-3 / analyse=0x3:0x113 / me=umh / subme=10 / psy=1 / psy_rd=1.00:0.00 / mixed_ref=1 / me_range=64 / chroma_me=1 / trellis=2 / 8x8dct=1 / cqm=0 / deadzone=21,11 / fast_pskip=0 / chroma_qp_offset=-2 / threads=3 / sliced_threads=0 / nr=0 / decimate=0 / interlaced=0 / constrained_intra=0 / bframes=16 / b_pyramid=2 / b_adapt=1 / b_bias=0 / direct=1 / weightb=1 / open_gop=0 / weightp=2 / keyint=250 / keyint_min=25 / scenecut=40 / intra_refresh=0 / rc_lookahead=40 / rc=2pass / mbtree=1 / bitrate=4499 / ratetol=1.0 / qcomp=0.60 / qpmin=10 / qpmax=51 / qpstep=4 / cplxblur=20.0 / qblur=0.5 / ip_ratio=1.40 / aq=1:1.00
Audio
ID : 2
Format : AC-3
Format/Info : Audio Coding 3
Mode extension : CM (complete main)
Codec ID : A_AC3
Duration : 3mn 23s
Bit rate mode : Constant
Bit rate : 448 Kbps
Channel(s) : 6 channels
Channel positions : Front: L C R, Side: L R, LFE
Sampling rate : 48.0 KHz
Bit depth : 16 bits
Stream size : 10.9 MiB (9%)
General
Complete name : Animuzika.(2.serija.iz.9).2010.x264.BDRip(720p)-valegorov.mkv
Format : Matroska
File size : 145 MiB
Duration : 4mn 5s
Overall bit rate : 4 964 Kbps
Movie name : Animusic 2 2010 [ve]
Encoded date : UTC 2011-02-25 11:27:15
Writing application : mkvmerge v4.3.0 ('Escape from the Island') built on Sep 5 2010 10:30:51
Writing library : libebml v1.0.0 + libmatroska v1.0.0
Video
ID : 1
Format : AVC
Format/Info : Advanced Video Codec
Format profile : [email protected]
Format settings, CABAC : Yes
Format settings, ReFrames : 8 frames
Muxing mode : Container [email protected]
Codec ID : V_MPEG4/ISO/AVC
Duration : 4mn 5s
Bit rate : 4 499 Kbps
Width : 1 280 pixels
Height : 720 pixels
Display aspect ratio : 16:9
Frame rate : 29.970 fps
Color space : YUV
Chroma subsampling : 4:2:0
Bit depth : 8 bits
Scan type : Progressive
Bits/(Pixel*Frame) : 0.163
Stream size : 129 MiB (89%)
Title : Animusic 2 2010 [ve]
Writing library : x264 core 112 r1867 22bfd31
Encoding settings : cabac=1 / ref=8 / deblock=1:-2:-3 / analyse=0x3:0x113 / me=umh / subme=10 / psy=1 / psy_rd=1.00:0.00 / mixed_ref=1 / me_range=64 / chroma_me=1 / trellis=2 / 8x8dct=1 / cqm=0 / deadzone=21,11 / fast_pskip=0 / chroma_qp_offset=-2 / threads=3 / sliced_threads=0 / nr=0 / decimate=0 / interlaced=0 / constrained_intra=0 / bframes=16 / b_pyramid=2 / b_adapt=1 / b_bias=0 / direct=1 / weightb=1 / open_gop=0 / weightp=2 / keyint=250 / keyint_min=25 / scenecut=40 / intra_refresh=0 / rc_lookahead=40 / rc=2pass / mbtree=1 / bitrate=4499 / ratetol=1.0 / qcomp=0.60 / qpmin=10 / qpmax=51 / qpstep=4 / cplxblur=20.0 / qblur=0.5 / ip_ratio=1.40 / aq=1:1.00
Audio
ID : 2
Format : AC-3
Format/Info : Audio Coding 3
Mode extension : CM (complete main)
Codec ID : A_AC3
Duration : 4mn 5s
Bit rate mode : Constant
Bit rate : 448 Kbps
Channel(s) : 6 channels
Channel positions : Front: L C R, Side: L R, LFE
Sampling rate : 48.0 KHz
Bit depth : 16 bits
Stream size : 13.1 MiB (9%)
General
Complete name : Animuzika.(3.serija.iz.9).2010.x264.BDRip(720p)-valegorov.mkv
Format : Matroska
File size : 118 MiB
Duration : 3mn 20s
Overall bit rate : 4 962 Kbps
Movie name : Animusic 3 2010 [ve]
Encoded date : UTC 2011-02-25 14:19:19
Writing application : mkvmerge v4.3.0 ('Escape from the Island') built on Sep 5 2010 10:30:51
Writing library : libebml v1.0.0 + libmatroska v1.0.0
Video
ID : 1
Format : AVC
Format/Info : Advanced Video Codec
Format profile : [email protected]
Format settings, CABAC : Yes
Format settings, ReFrames : 8 frames
Format settings, GOP : M=1, N=3
Muxing mode : Container [email protected]
Codec ID : V_MPEG4/ISO/AVC
Duration : 3mn 20s
Bit rate : 4 499 Kbps
Width : 1 280 pixels
Height : 720 pixels
Display aspect ratio : 16:9
Frame rate : 29.970 fps
Color space : YUV
Chroma subsampling : 4:2:0
Bit depth : 8 bits
Scan type : Progressive
Bits/(Pixel*Frame) : 0.163
Stream size : 105 MiB (89%)
Title : Animusic 3 2010 [ve]
Writing library : x264 core 112 r1867 22bfd31
Encoding settings : cabac=1 / ref=8 / deblock=1:-2:-3 / analyse=0x3:0x113 / me=umh / subme=10 / psy=1 / psy_rd=1.00:0.00 / mixed_ref=1 / me_range=64 / chroma_me=1 / trellis=2 / 8x8dct=1 / cqm=0 / deadzone=21,11 / fast_pskip=0 / chroma_qp_offset=-2 / threads=3 / sliced_threads=0 / nr=0 / decimate=0 / interlaced=0 / constrained_intra=0 / bframes=16 / b_pyramid=2 / b_adapt=1 / b_bias=0 / direct=1 / weightb=1 / open_gop=0 / weightp=2 / keyint=250 / keyint_min=25 / scenecut=40 / intra_refresh=0 / rc_lookahead=40 / rc=2pass / mbtree=1 / bitrate=4499 / ratetol=1.0 / qcomp=0.60 / qpmin=10 / qpmax=51 / qpstep=4 / cplxblur=20.0 / qblur=0.5 / ip_ratio=1.40 / aq=1:1.00
Audio
ID : 2
Format : AC-3
Format/Info : Audio Coding 3
Mode extension : CM (complete main)
Codec ID : A_AC3
Duration : 3mn 20s
Bit rate mode : Constant
Bit rate : 448 Kbps
General
Complete name : Animuzika.(4.serija.iz.9).2010.x264.BDRip(720p)-valegorov.mkv
Format : Matroska
File size : 160 MiB
Duration : 4mn 30s
Overall bit rate : 4 958 Kbps
Movie name : Animusic 4 2010 [ve]
Encoded date : UTC 2011-02-25 19:35:23
Writing application : mkvmerge v4.3.0 ('Escape from the Island') built on Sep 5 2010 10:30:51
Writing library : libebml v1.0.0 + libmatroska v1.0.0
Video
ID : 1
Format : AVC
Format/Info : Advanced Video Codec
Format profile : [email protected]
Format settings, CABAC : Yes
Format settings, ReFrames : 8 frames
Muxing mode : Container [email protected]
Codec ID : V_MPEG4/ISO/AVC
Duration : 4mn 30s
Bit rate : 4 499 Kbps
Width : 1 280 pixels
Height : 720 pixels
Display aspect ratio : 16:9
Frame rate : 29.970 fps
Color space : YUV
Chroma subsampling : 4:2:0
Bit depth : 8 bits
Scan type : Progressive
Bits/(Pixel*Frame) : 0.163
Stream size : 142 MiB (89%)
Title : Animusic 4 2010 [ve]
Writing library : x264 core 112 r1867 22bfd31
Encoding settings : cabac=1 / ref=8 / deblock=1:-2:-3 / analyse=0x3:0x113 / me=umh / subme=10 / psy=1 / psy_rd=1.00:0.00 / mixed_ref=1 / me_range=64 / chroma_me=1 / trellis=2 / 8x8dct=1 / cqm=0 / deadzone=21,11 / fast_pskip=0 / chroma_qp_offset=-2 / threads=3 / sliced_threads=0 / nr=0 / decimate=0 / interlaced=0 / constrained_intra=0 / bframes=16 / b_pyramid=2 / b_adapt=1 / b_bias=0 / direct=1 / weightb=1 / open_gop=0 / weightp=2 / keyint=250 / keyint_min=25 / scenecut=40 / intra_refresh=0 / rc_lookahead=40 / rc=2pass / mbtree=1 / bitrate=4499 / ratetol=1.0 / qcomp=0.60 / qpmin=10 / qpmax=51 / qpstep=4 / cplxblur=20.0 / qblur=0.5 / ip_ratio=1.40 / aq=1:1.00
Audio
ID : 2
Format : AC-3
Format/Info : Audio Coding 3
Mode extension : CM (complete main)
Codec ID : A_AC3
Duration : 4mn 30s
Bit rate mode : Constant
Bit rate : 448 Kbps
Channel(s) : 6 channels
Channel positions : Front: L C R, Side: L R, LFE
Sampling rate : 48.0 KHz
Bit depth : 16 bits
Stream size : 14.5 MiB (9%)
General
Complete name : Animuzika.(5.serija.iz.9).2010.x264.BDRip(720p)-valegorov.mkv
Format : Matroska
File size : 217 MiB
Duration : 6mn 7s
Overall bit rate : 4 950 Kbps
Movie name : Animusic 5 2010 [ve]
Encoded date : UTC 2011-02-26 05:48:13
Writing application : mkvmerge v4.3.0 ('Escape from the Island') built on Sep 5 2010 10:30:51
Writing library : libebml v1.0.0 + libmatroska v1.0.0
Video
ID : 1
Format : AVC
Format/Info : Advanced Video Codec
Format profile : [email protected]
Format settings, CABAC : Yes
Format settings, ReFrames : 8 frames
Format settings, GOP : M=1, N=3
Muxing mode : Container [email protected]
Codec ID : V_MPEG4/ISO/AVC
Duration : 6mn 7s
Bit rate : 4 499 Kbps
Width : 1 280 pixels
Height : 720 pixels
Display aspect ratio : 16:9
Frame rate : 29.970 fps
Color space : YUV
Chroma subsampling : 4:2:0
Bit depth : 8 bits
Scan type : Progressive
Bits/(Pixel*Frame) : 0.163
Stream size : 193 MiB (89%)
Title : Animusic 5 2010 [ve]
Writing library : x264 core 112 r1867 22bfd31
Encoding settings : cabac=1 / ref=8 / deblock=1:-2:-3 / analyse=0x3:0x113 / me=umh / subme=10 / psy=1 / psy_rd=1.00:0.00 / mixed_ref=1 / me_range=64 / chroma_me=1 / trellis=2 / 8x8dct=1 / cqm=0 / deadzone=21,11 / fast_pskip=0 / chroma_qp_offset=-2 / threads=3 / sliced_threads=0 / nr=0 / decimate=0 / interlaced=0 / constrained_intra=0 / bframes=16 / b_pyramid=2 / b_adapt=1 / b_bias=0 / direct=1 / weightb=1 / open_gop=0 / weightp=2 / keyint=250 / keyint_min=25 / scenecut=40 / intra_refresh=0 / rc_lookahead=40 / rc=2pass / mbtree=1 / bitrate=4499 / ratetol=1.0 / qcomp=0.60 / qpmin=10 / qpmax=51 / qpstep=4 / cplxblur=20.0 / qblur=0.5 / ip_ratio=1.40 / aq=1:1.00
Audio
ID : 2
Format : AC-3
Format/Info : Audio Coding 3
Mode extension : CM (complete main)
Codec ID : A_AC3
Duration : 6mn 7s
Bit rate mode : Constant
Bit rate : 448 Kbps
Channel(s) : 6 channels
Channel positions : Front: L C R, Side: L R, LFE
Sampling rate : 48.0 KHz
Bit depth : 16 bits
Stream size : 19.6 MiB (9%)
eneral
Complete name : Animuzika.(6.serija.iz.9).2010.x264.BDRip(720p)-valegorov.mkv
Format : Matroska
File size : 138 MiB
Duration : 3mn 52s
Overall bit rate : 4 963 Kbps
Movie name : Animusic 6 2010 [ve]
Encoded date : UTC 2011-02-26 08:04:29
Writing application : mkvmerge v4.3.0 ('Escape from the Island') built on Sep 5 2010 10:30:51
Writing library : libebml v1.0.0 + libmatroska v1.0.0
Video
ID : 1
Format : AVC
Format/Info : Advanced Video Codec
Format profile : [email protected]
Format settings, CABAC : Yes
Format settings, ReFrames : 8 frames
Format settings, GOP : N=1
Muxing mode : Container [email protected]
Codec ID : V_MPEG4/ISO/AVC
Duration : 3mn 52s
Bit rate : 4 499 Kbps
Width : 1 280 pixels
Height : 720 pixels
Display aspect ratio : 16:9
Frame rate : 29.970 fps
Color space : YUV
Chroma subsampling : 4:2:0
Bit depth : 8 bits
Scan type : Progressive
Bits/(Pixel*Frame) : 0.163
Stream size : 122 MiB (89%)
Title : Animusic 6 2010 [ve]
Writing library : x264 core 112 r1867 22bfd31
Encoding settings : cabac=1 / ref=8 / deblock=1:-2:-3 / analyse=0x3:0x113 / me=umh / subme=10 / psy=1 / psy_rd=1.00:0.00 / mixed_ref=1 / me_range=64 / chroma_me=1 / trellis=2 / 8x8dct=1 / cqm=0 / deadzone=21,11 / fast_pskip=0 / chroma_qp_offset=-2 / threads=3 / sliced_threads=0 / nr=0 / decimate=0 / interlaced=0 / constrained_intra=0 / bframes=16 / b_pyramid=2 / b_adapt=1 / b_bias=0 / direct=1 / weightb=1 / open_gop=0 / weightp=2 / keyint=250 / keyint_min=25 / scenecut=40 / intra_refresh=0 / rc_lookahead=40 / rc=2pass / mbtree=1 / bitrate=4499 / ratetol=1.0 / qcomp=0.60 / qpmin=10 / qpmax=51 / qpstep=4 / cplxblur=20.0 / qblur=0.5 / ip_ratio=1.40 / aq=1:1.00
Audio
ID : 2
Format : AC-3
Format/Info : Audio Coding 3
Mode extension : CM (complete main)
Codec ID : A_AC3
Duration : 3mn 52s
Bit rate mode : Constant
Bit rate : 448 Kbps
Channel(s) : 6 channels
Channel positions : Front: L C R, Side: L R, LFE
Sampling rate : 48.0 KHz
Bit depth : 16 bits
Stream size : 12.4 MiB (9%)
General
Complete name : Animuzika.(7.serija.iz.9).2010.x264.BDRip(720p)-valegorov.mkv
Format : Matroska
File size : 187 MiB
Duration : 5mn 16s
Overall bit rate : 4 957 Kbps
Movie name : Animusic 7 2010 [ve]
Encoded date : UTC 2011-02-26 11:05:13
Writing application : mkvmerge v4.3.0 ('Escape from the Island') built on Sep 5 2010 10:30:51
Writing library : libebml v1.0.0 + libmatroska v1.0.0
Video
ID : 1
Format : AVC
Format/Info : Advanced Video Codec
Format profile : [email protected]
Format settings, CABAC : Yes
Format settings, ReFrames : 8 frames
Muxing mode : Container [email protected]
Codec ID : V_MPEG4/ISO/AVC
Duration : 5mn 16s
Bit rate : 4 499 Kbps
Width : 1 280 pixels
Height : 720 pixels
Display aspect ratio : 16:9
Frame rate : 29.970 fps
Color space : YUV
Chroma subsampling : 4:2:0
Bit depth : 8 bits
Scan type : Progressive
Bits/(Pixel*Frame) : 0.163
Stream size : 167 MiB (89%)
Title : Animusic 7 2010 [ve]
Writing library : x264 core 112 r1867 22bfd31
Encoding settings : cabac=1 / ref=8 / deblock=1:-2:-3 / analyse=0x3:0x113 / me=umh / subme=10 / psy=1 / psy_rd=1.00:0.00 / mixed_ref=1 / me_range=64 / chroma_me=1 / trellis=2 / 8x8dct=1 / cqm=0 / deadzone=21,11 / fast_pskip=0 / chroma_qp_offset=-2 / threads=3 / sliced_threads=0 / nr=0 / decimate=0 / interlaced=0 / constrained_intra=0 / bframes=16 / b_pyramid=2 / b_adapt=1 / b_bias=0 / direct=1 / weightb=1 / open_gop=0 / weightp=2 / keyint=250 / keyint_min=25 / scenecut=40 / intra_refresh=0 / rc_lookahead=40 / rc=2pass / mbtree=1 / bitrate=4499 / ratetol=1.0 / qcomp=0.60 / qpmin=10 / qpmax=51 / qpstep=4 / cplxblur=20.0 / qblur=0.5 / ip_ratio=1.40 / aq=1:1.00
Audio
ID : 2
Format : AC-3
Format/Info : Audio Coding 3
Mode extension : CM (complete main)
Codec ID : A_AC3
Duration : 5mn 16s
Bit rate mode : Constant
Bit rate : 448 Kbps
Channel(s) : 6 channels
Channel positions : Front: L C R, Side: L R, LFE
Sampling rate : 48.0 KHz
Bit depth : 16 bits
Stream size : 16.9 MiB (9%)
General
Complete name : Animuzika.(8.serija.iz.9).2010.x264.BDRip(720p)-valegorov.mkv
Format : Matroska
File size : 148 MiB
Duration : 4mn 10s
Overall bit rate : 4 959 Kbps
Movie name : Animusic 8 2010 [ve]
Encoded date : UTC 2011-02-26 16:47:38
Writing application : mkvmerge v4.3.0 ('Escape from the Island') built on Sep 5 2010 10:30:51
Writing library : libebml v1.0.0 + libmatroska v1.0.0
Video
ID : 1
Format : AVC
Format/Info : Advanced Video Codec
Format profile : [email protected]
Format settings, CABAC : Yes
Format settings, ReFrames : 8 frames
Muxing mode : Container [email protected]
Codec ID : V_MPEG4/ISO/AVC
Duration : 4mn 10s
Bit rate : 4 499 Kbps
Width : 1 280 pixels
Height : 720 pixels
Display aspect ratio : 16:9
Frame rate : 29.970 fps
Color space : YUV
Chroma subsampling : 4:2:0
Bit depth : 8 bits
Scan type : Progressive
Bits/(Pixel*Frame) : 0.163
Stream size : 132 MiB (89%)
Title : Animusic 8 2010 [ve]
Writing library : x264 core 112 r1867 22bfd31
Encoding settings : cabac=1 / ref=8 / deblock=1:-2:-3 / analyse=0x3:0x113 / me=umh / subme=10 / psy=1 / psy_rd=1.00:0.00 / mixed_ref=1 / me_range=64 / chroma_me=1 / trellis=2 / 8x8dct=1 / cqm=0 / deadzone=21,11 / fast_pskip=0 / chroma_qp_offset=-2 / threads=3 / sliced_threads=0 / nr=0 / decimate=0 / interlaced=0 / constrained_intra=0 / bframes=16 / b_pyramid=2 / b_adapt=1 / b_bias=0 / direct=1 / weightb=1 / open_gop=0 / weightp=2 / keyint=250 / keyint_min=25 / scenecut=40 / intra_refresh=0 / rc_lookahead=40 / rc=2pass / mbtree=1 / bitrate=4499 / ratetol=1.0 / qcomp=0.60 / qpmin=10 / qpmax=51 / qpstep=4 / cplxblur=20.0 / qblur=0.5 / ip_ratio=1.40 / aq=1:1.00
Audio
ID : 2
Format : AC-3
Format/Info : Audio Coding 3
Mode extension : CM (complete main)
Codec ID : A_AC3
Duration : 4mn 10s
Bit rate mode : Constant
Bit rate : 448 Kbps
Channel(s) : 6 channels
Channel positions : Front: L C R, Side: L R, LFE
Sampling rate : 48.0 KHz
Bit depth : 16 bits
Stream size : 13.4 MiB (9%)
General
Complete name : Animuzika.(9.serija.iz.9).2010.x264.BDRip(720p)-valegorov.mkv
Format : Matroska
File size : 256 MiB
Duration : 7mn 15s
Overall bit rate : 4 931 Kbps
Movie name : Animusic 9 2010 [ve]
Encoded date : UTC 2011-02-27 04:38:14
Writing application : mkvmerge v4.3.0 ('Escape from the Island') built on Sep 5 2010 10:30:51
Writing library : libebml v1.0.0 + libmatroska v1.0.0
Video
ID : 1
Format : AVC
Format/Info : Advanced Video Codec
Format profile : [email protected]
Format settings, CABAC : Yes
Format settings, ReFrames : 8 frames
Muxing mode : Container [email protected]
Codec ID : V_MPEG4/ISO/AVC
Duration : 7mn 15s
Bit rate : 4 499 Kbps
Width : 1 280 pixels
Height : 720 pixels
Display aspect ratio : 16:9
Frame rate : 29.970 fps
Color space : YUV
Chroma subsampling : 4:2:0
Bit depth : 8 bits
Scan type : Progressive
Bits/(Pixel*Frame) : 0.163
Stream size : 228 MiB (89%)
Title : Animusic 9 2010 [ve]
Writing library : x264 core 112 r1867 22bfd31
Encoding settings : cabac=1 / ref=8 / deblock=1:-2:-3 / analyse=0x3:0x113 / me=umh / subme=10 / psy=1 / psy_rd=1.00:0.00 / mixed_ref=1 / me_range=64 / chroma_me=1 / trellis=2 / 8x8dct=1 / cqm=0 / deadzone=21,11 / fast_pskip=0 / chroma_qp_offset=-2 / threads=3 / sliced_threads=0 / nr=0 / decimate=0 / interlaced=0 / constrained_intra=0 / bframes=16 / b_pyramid=2 / b_adapt=1 / b_bias=0 / direct=1 / weightb=1 / open_gop=0 / weightp=2 / keyint=250 / keyint_min=25 / scenecut=40 / intra_refresh=0 / rc_lookahead=40 / rc=2pass / mbtree=1 / bitrate=4499 / ratetol=1.0 / qcomp=0.60 / qpmin=10 / qpmax=51 / qpstep=4 / cplxblur=20.0 / qblur=0.5 / ip_ratio=1.40 / aq=1:1.00
Audio
ID : 2
Format : AC-3
Format/Info : Audio Coding 3
Mode extension : CM (complete main)
Codec ID : A_AC3
Duration : 7mn 15s
Bit rate mode : Constant
Bit rate : 448 Kbps
Channel(s) : 6 channels
Channel positions : Front: L C R, Side: L R, LFE
Sampling rate : 48.0 KHz
Bit depth : 16 bits
Stream size : 23.3 MiB (9%)
Скриншоты
Download
Сайт не распространяет и не хранит электронные версии произведений, а лишь предоставляет доступ к создаваемому пользователями каталогу ссылок на торрент-файлы, которые содержат только списки хеш-сумм
Как скачивать? (для скачивания .torrent файлов необходима регистрация)
[Профиль]  [ЛС] 
 

ddfh

Стаж: 11 лет 10 месяцев

Сообщений: 851

ddfh · 05-Мар-11 17:24 (спустя 5 дней)

Гениальная вещь
В hd - прелесть. Да в хороших наушниках - чтоб слышать стереокартину. Завораживает, как и раньше
[Профиль]  [ЛС] 

fosy_sasha

Стаж: 10 лет 5 месяцев

Сообщений: 23

fosy_sasha · 17-Мар-11 10:19 (спустя 11 дней)

Ничего и никогда не видел подобного!!! От просмотра был просто в восторге и под впечатлением на целый вечер. Вся семья вместе со мной смотрела (понравилось всем). Не мог оторваться от экрана.
И еще одно для полного кайфа нужно чтобы была хорошая акустика (желательно саб) да и побольше звука (чем больше тем лучше ))))))))
Посмотрите, я уверен что никого не оставят эти ролики равнодушными!!!!!!!!!!!!!!!!!!
[Профиль]  [ЛС] 

DIMKO35

Стаж: 9 лет 6 месяцев

Сообщений: 1


DIMKO35 · 27-Мар-11 20:21 (спустя 10 дней)

Я сам музыкант..-кайф!) Сделано офигитительно..Видно что работали аниматоры в тандеме с проф музыкантами..или нааборот)))
[Профиль]  [ЛС] 

guzonka

Стаж: 11 лет 9 месяцев

Сообщений: 1162

guzonka · 03-Апр-11 23:58 (спустя 7 дней, ред. 04-Апр-11 17:10)

Спасибо, наконец-то хороший рип.
Upd:
Правда, медиацентр его не показывает. Будем искать дальше.
[Профиль]  [ЛС] 

valegorov

Стаж: 12 лет 3 месяца

Сообщений: 98

valegorov · 18-Апр-11 10:29 (спустя 14 дней, ред. 18-Апр-11 10:29)

guzonka
Да. Как выяснилось глубоко после раздачи, этот вариант пошёл не на всех железных плейерах.
Выход оказался прост. Просто пересобрать материал другой версией муксера (mkvmerge). Дело нескольких минут.
Прошу простить за неудобства, но такого я предвидеть не мог.
[Профиль]  [ЛС] 

Enneg

Стаж: 10 лет 1 месяц

Сообщений: 403

Enneg · 18-Апр-11 16:49 (спустя 6 часов)

А в этом формате это все? подскажите. Не все же вошло что в первый и второй диски девятки?
Или я ошибаюсь?
Спасибо!
[Профиль]  [ЛС] 

Kirillmm

Стаж: 11 лет

Сообщений: 184

Kirillmm · 18-Апр-11 18:58 (спустя 2 часа 9 мин.)

Да всё что ребятки сделали, этака сборная солянка 1 и 2 девятки http://www.animusic.com/previews/animusicHD.php
[Профиль]  [ЛС] 

guzonka

Стаж: 11 лет 9 месяцев

Сообщений: 1162

guzonka · 18-Апр-11 19:01 (спустя 2 мин., ред. 19-Апр-11 10:04)

Как раз моего любимого клипа High Voltage здесь нет.
valegorov писал(а):
Просто пересобрать материал другой версией муксера (mkvmerge).
Тот, на который Вы дали мне ссылку, платный архив.
Второй раз зря скачал раздачу.
[Профиль]  [ЛС] 

westkil

Стаж: 10 лет 1 месяц

Сообщений: 20


westkil · 07-Май-11 21:11 (спустя 19 дней)

Здорово, раздающему респект.
Второй диск бы еще найти...
[Профиль]  [ЛС] 

Lyosh108

Стаж: 9 лет 8 месяцев

Сообщений: 64

Lyosh108 · 02-Июн-11 10:47 (спустя 25 дней)

valegorov писал(а):
guzonka
Да. Как выяснилось глубоко после раздачи, этот вариант пошёл не на всех железных плейерах.
Выход оказался прост. Просто пересобрать материал другой версией муксера (mkvmerge). Дело нескольких минут.
Прошу простить за неудобства, но такого я предвидеть не мог.
да, WD TV его не показывает, причем после попытки проиграть эти файлы - отказывается проигрывать вообще все.
что значит "пересобрать"? подскажите, уж больно хочется эту красоту на 40" посмотреть... MKVmerge у меня есть.
[Профиль]  [ЛС] 

sergii75

Стаж: 10 лет 4 месяца

Сообщений: 326

sergii75 · 15-Июн-11 23:05 (спустя 13 дней, ред. 17-Июн-11 10:16)

как пересобрать, что это значит?
Вопрос снят, и так работает (WD TV 2)
[Профиль]  [ЛС] 

Lyosh108

Стаж: 9 лет 8 месяцев

Сообщений: 64

Lyosh108 · 22-Июн-11 23:07 (спустя 7 дней)

sergii75 писал(а):
как пересобрать, что это значит?
Вопрос снят, и так работает (WD TV 2)
Работает? Прошивку давно обновляли? У меня по прежнему не работает...
[Профиль]  [ЛС] 

sergii75

Стаж: 10 лет 4 месяца

Сообщений: 326

sergii75 · 23-Июн-11 00:26 (спустя 1 час 18 мин.)

ну я купил не так давно в принципе... поправочка, WD TV Live
[Профиль]  [ЛС] 

Almeliv

Стаж: 10 лет 7 месяцев

Сообщений: 4


Almeliv · 07-Окт-11 04:55 (спустя 3 месяца 14 дней)

guzonka писал(а):
Как раз моего любимого клипа High Voltage здесь нет.
Настолько любимый, что не знаешь правильного названия?
[Профиль]  [ЛС] 

ExecutorTA

Стаж: 10 лет 4 месяца

Сообщений: 60


ExecutorTA · 26-Окт-11 21:29 (спустя 19 дней, ред. 26-Окт-11 21:29)

Harmonic Voltage, а жаль - трек действительно шикарный. По крайней мере есть версия с аудиодиска и то хорошо
[Профиль]  [ЛС] 

dpuser

Стаж: 10 лет 7 месяцев

Сообщений: 16


dpuser · 23-Ноя-11 17:53 (спустя 27 дней)

Шедевральная штука. Жаль первый диск в BD не выпустили. Только Pipe Dream оттуда. Что-то ничего от них не слышно, но ходили слухи, что 3-я часть тоже будет. Будем ждать)
[Профиль]  [ЛС] 

bоts

Стаж: 9 лет 4 месяца

Сообщений: 274


bоts · 23-Дек-11 18:57 (спустя 1 месяц, ред. 24-Дек-11 20:57)

Спасибо за качественный рип.
Вопрос ?!
Год выпуска: 2010 - получается BD диск с теми же треками что и предидущие двд издания считается 3-м? Видел это видео ещё в 2004 и в чем разница кроме качества.
К настоящему времени было выпущено два диска таких компиляций:
Animusic: A Computer Animation Video Album (2001; переиздание на DVD в 2004);
Animusic 2: A New Computer Animation Video Album (2005)
[Профиль]  [ЛС] 

LastEvangelion

Стаж: 11 лет 7 месяцев

Сообщений: 73

LastEvangelion · 10-Фев-12 19:50 (спустя 1 месяц 18 дней)

Подскажите, какой программой сделано и где такую скачать?
[Профиль]  [ЛС] 

ToEst

Top User 06

Стаж: 10 лет 9 месяцев

Сообщений: 41

ToEst · 15-Фев-12 19:42 (спустя 4 дня)

LastEvangelion писал(а):
Подскажите, какой программой сделано и где такую скачать?

Это сделано с помощью программы wishmaster.
[Профиль]  [ЛС] 

tufi

Стаж: 12 лет 9 месяцев

Сообщений: 39

tufi · 20-Апр-12 23:03 (спустя 2 месяца 5 дней)

Спасибо за качество..с удовольствием пересмотрел в HD...пару любимых вещей не хватило правда,но в целом подборка хорошая...WD TV Live Streaming прокрутил без нареканий.Будем ждать первую часть в высоком разрешении!
[Профиль]  [ЛС] 

igorekas48

Top Seed 03* 160r

Стаж: 10 лет 10 месяцев

Сообщений: 2410

igorekas48 · 21-Авг-12 14:44 (спустя 4 месяца)

Вот это вещь! Крутил на большом телевизоре с хорошей акустикой и наслаждался! (В это время обедал, так так и остался с разинутым ртом, ложка мимо проходила...) Шедевр! Спасибо!
[Профиль]  [ЛС] 

kvichans

Стаж: 11 лет

Сообщений: 8

kvichans · 22-Авг-12 10:43 (спустя 19 часов)

Подтверждаю (вчера проверил), что на WD TV (не Live, с последней оф.прошивкой 1.03.01) и ролики не проигрываются, и после них уже ничего не проигрывается. Лечится перезапуском.
Объясните далекому от темы: можно ли конвертировать в подходящий "старый" формат без потери качества? Может готовые есть - не нашел.
[Профиль]  [ЛС] 

mealengab

Стаж: 10 лет 9 месяцев

Сообщений: 180


mealengab · 27-Авг-12 16:35 (спустя 5 дней)

kvichans
прогоните файл через прогу mkvmerge (можно последней версии, только в настройках обязательно поставить галочку напротив Отключить удаление сжатия заголовка по умолчанию для аудио- и видеодорожек
[Профиль]  [ЛС] 

TGer

Стаж: 8 лет 8 месяцев

Сообщений: 26


TGer · 27-Дек-12 12:45 (спустя 3 месяца 30 дней)

Потрясающее Завораживающее Зрелище! СПАСИБО за отличное качество!
[Профиль]  [ЛС] 

Shraibikus

Стаж: 10 лет 4 месяца

Сообщений: 792

Shraibikus · 04-Янв-13 17:51 (спустя 8 дней)

Классно сделано, спасибо!
ExecutorTA писал(а):
48624851Harmonic Voltage, а жаль - трек действительно шикарный
Посмотрел - ничего особенного. Симпатично, но простенько. Тутошные поинтереснее, ИМХО.
[Профиль]  [ЛС] 

guzonka

Стаж: 11 лет 9 месяцев

Сообщений: 1162

guzonka · 04-Янв-13 19:17 (спустя 1 час 25 мин.)

Shraibikus писал(а):
57169227Посмотрел - ничего особенного
Он простой, но какой-то... как дыхание вселенной.
[Профиль]  [ЛС] 

CATFISH-2

Стаж: 9 лет 11 месяцев

Сообщений: 1941

CATFISH-2 · 21-Июн-13 01:19 (спустя 5 месяцев 16 дней, ред. 21-Июн-13 01:19)

valegorov, на кой писать транслитом названия треков,кой есъты ORIGЫNALNЫE ?
в основном пишут,основываясь на "КАК ЕТА ПО-РЮСКИ", ни один поисковик не изыщет,IZHYSHET
а аффтара рипа - себя,можно указать внутри контейнера в глобальных настройках
В любом случае=СПАСИБО !
[Профиль]  [ЛС] 

mazun1966

Стаж: 8 лет 9 месяцев

Сообщений: 25

mazun1966 · 16-Ноя-13 23:06 (спустя 4 месяца 25 дней)

Абалдеть!так классно,масштаб звука впечатляет.
Спасибо огромное,подобного еще не видел!!!
[Профиль]  [ЛС] 

Remer66

Стаж: 9 лет 5 месяцев

Сообщений: 22


Remer66 · 05-Мар-15 20:39 (спустя 1 год 3 месяца)

"Отпад", раньше такого не встречал!
[Профиль]  [ЛС] 
 
Ответить
Loading...
Error