Адрес РуТрекера для пользователей РФ - MainTracker.org

Расскажи друзьям:  

Планета Земля / Planet Earth (Аластер Фозергилл / Alastair Fothergill) [2006, документальный, BDRip-AVC] [11 серий из 11] [VO (Николай Дроздов) + original + sub (rus)] BBC

Страницы :  1, 2  След.

Ответить
Автор
Сообщение

vovaniez

Стаж: 8 лет 9 месяцев

Сообщений: 4931

vovaniez · 04-Мар-12 10:26 (6 лет 6 месяцев назад, ред. 10-Мар-15 07:10)



BBC: Планета Земля (11 серий из 11) / Planet Earth

Страна: Великобритания
Жанр: Документальный
Год выпуска: 2006
Продолжительность: 11х~00:50:00
Перевод: Профессиональный (одноголосый закадровый) Николай Дроздов
Субтитры: русские
Оригинальная аудиодорожка: английский

Режиссер: Аластер Фозергилл / Alastair Fothergill

В ролях: Дэвид Аттэнборо, Mike Holding, Tanya Jenkins, Michael Kelem, Марк Линфилд, Peter Perlstein

Описание: Создатели сериала «Голубая планета» сняли новый фильм, показывающий Землю такой, какой ее еще никто не видел прежде. Невероятные по красоте пейзажи и самые заповедные и малоизученные уголки нашей планеты. Четыре года напряженной работы и беспрецедентный для документального фильма бюджет позволили создать уникальный по масштабности фильм. А революционные режимы сверхскоростной съемки и детализации картинки, сделали возможным показать великолепие нашей природы во всех подробностях.


Релиз группы: AVC и RG Doc. film

Тип релиза: BDRip-AVC [исходник]
Контейнер: MKV
Видео: AVC at 2700-4350Kbps 960 x 540 (1.778) at 23.976 fps (подробно под спойлером)
Аудио:
AC-3 at 192 Kbps 2 channels, 48.0 KHz Rus
AC-3 at 448 Kbps 6 channels, 48.0 KHz Eng
Нивигация по главам (чаптеры): есть
Список серий
1 серия - От полюса до полюса / From Pole to Pole
Описание: Несмотря на стремительное увеличение населения Земли, на планете еще остались места, где не ступала нога человека. В этой серии вы увидите последние нетронутые уголки дикой природы.
Тип релиза: BDRip-AVC
Контейнер: MKV
Видео: AVC at 3537 Kbps 960 x 540 (1.778) at 23.976 fps
Аудио:
AC-3 at 192 Kbps 2 channels, 48.0 KHz Rus
AC-3 at 448 Kbps 6 channels, 48.0 KHz Eng
Mediainfo
Format : Matroska
File size : 1.49 GiB
Duration : 51mn 16s
Overall bit rate : 4 173 Kbps
Encoded date : UTC 2012-03-04 06:38:31
Writing application : mkvmerge v4.5.0 ('Speed of Light') built on Feb 1 2011 02:10:32
Writing library : libebml v1.2.0 + libmatroska v1.1.0
Video
ID : 1
Format : AVC
Format/Info : Advanced Video Codec
Format profile : High@L4.1
Format settings, CABAC : Yes
Format settings, ReFrames : 6 frames
Muxing mode : Container profile=Unknown@4.1
Codec ID : V_MPEG4/ISO/AVC
Duration : 51mn 13s
Bit rate : 3 450 Kbps
Width : 960 pixels
Height : 540 pixels
Display aspect ratio : 16:9
Frame rate : 23.976 fps
Resolution : 24 bits
Colorimetry : 4:2:0
Scan type : Progressive
Bits/(Pixel*Frame) : 0.278
Stream size : 1.23 GiB (83%)
Writing library : x264 core 116 r2074kMod 2641b9e
Encoding settings : cabac=1 / ref=6 / deblock=1:-1:-1 / analyse=0x3:0x113 / me=umh / subme=11 / psy=1 / fade_compensate=0.00 / psy_rd=1.00:0.10 / mixed_ref=1 / me_range=32 / chroma_me=1 / trellis=2 / 8x8dct=1 / cqm=0 / deadzone=21,11 / fast_pskip=1 / chroma_qp_offset=-3 / threads=3 / sliced_threads=0 / nr=0 / decimate=1 / interlaced=0 / bluray_compat=0 / constrained_intra=0 / bframes=8 / b_pyramid=2 / b_adapt=2 / b_bias=0 / direct=3 / weightb=1 / open_gop=0 / weightp=2 / keyint=250 / keyint_min=23 / scenecut=40 / intra_refresh=0 / rc_lookahead=60 / rc=crf / mbtree=0 / crf=19.4000 / qcomp=0.60 / qpmin=0 / qpmax=69 / qpstep=4 / vbv_maxrate=50000 / vbv_bufsize=62500 / crf_max=0.0 / nal_hrd=none / ip_ratio=1.30 / pb_ratio=1.20 / aq=3:0.70
Matrix coefficients : BT.709-5, BT.1361, IEC 61966-2-4 709, SMPTE RP177
Audio #1
ID : 2
Format : AC-3
Format/Info : Audio Coding 3
Format profile : Dolby Digital
Codec ID : A_AC3
Duration : 51mn 16s
Bit rate mode : Constant
Bit rate : 192 Kbps
Channel(s) : 2 channels
Channel positions : L R
Sampling rate : 48.0 KHz
Stream size : 70.4 MiB (5%)
Title : Русский
Language : Russian
Audio #2
ID : 3
Format : AC-3
Format/Info : Audio Coding 3
Codec ID : A_AC3
Duration : 51mn 16s
Bit rate mode : Constant
Bit rate : 448 Kbps
Channel(s) : 6 channels
Channel positions : Front: L C R, Surround: L R, LFE
Sampling rate : 48.0 KHz
Stream size : 164 MiB (11%)
Title : Оригинал
Text
ID : 4
Format : UTF-8
Codec ID : S_TEXT/UTF8
Codec ID/Info : UTF-8 Plain Text
Title : Русские
Language : Russian
Menu
00:00:00.000 : en:00:00:00.000
00:08:51.781 : en:00:08:51.781
00:19:10.941 : en:00:19:10.941
00:31:02.611 : en:00:31:02.611
00:41:16.182 : en:00:41:16.182
Log x264
x264 [info]: frame I:433 Avg QP:20.33 size: 87179
x264 [info]: frame P:16542 Avg QP:21.59 size: 33322
x264 [info]: frame B:56644 Avg QP:22.97 size: 13575
x264 [info]: consecutive B-frames: 2.3% 3.4% 6.5% 26.0% 18.8% 28.6% 7.3% 4.5% 2.7%
x264 [info]: mb I I16..4: 10.0% 73.2% 16.8%
x264 [info]: mb P I16..4: 0.9% 14.6% 1.7% P16..4: 28.9% 33.9% 15.3% 0.0% 0.0% skip: 4.7%
x264 [info]: mb B I16..4: 0.3% 3.3% 0.3% B16..8: 31.8% 21.7% 4.7% direct: 9.6% skip:28.4% L0:36.0% L1:43.1% BI:20.9%
x264 [info]: 8x8 transform intra:83.9% inter:58.0%
x264 [info]: direct mvs spatial:99.6% temporal:0.4%
x264 [info]: coded y,uvDC,uvAC intra: 95.9% 92.1% 72.0% inter: 36.0% 34.0% 10.0%
x264 [info]: i16 v,h,dc,p: 15% 11% 31% 43%
x264 [info]: i8 v,h,dc,ddl,ddr,vr,hd,vl,hu: 6% 11% 8% 10% 13% 11% 15% 11% 17%
x264 [info]: i4 v,h,dc,ddl,ddr,vr,hd,vl,hu: 8% 13% 7% 7% 13% 10% 16% 9% 17%
x264 [info]: i8c dc,h,v,p: 49% 24% 13% 14%
x264 [info]: Weighted P-Frames: Y:8.0% UV:3.0%
x264 [info]: ref P L0: 51.6% 17.5% 17.1% 5.1% 4.7% 3.5% 0.5% 0.0%
x264 [info]: ref B L0: 82.0% 10.8% 4.9% 1.7% 0.6%
x264 [info]: ref B L1: 93.7% 6.3%
x264 [info]: kb/s:3537.87
Скриншоты
2 Серия - Горы / Mountains
Описание:На свой страх и риск люди поднимаются на самые высокие вершины планеты. Некоторые считают, что, взбираясь на большую гору, они покоряют ее. Но на самом деле мы здесь только гости. Это холодный, чуждый нам мир неземной красоты…
Тип релиза: BDRip-AVC
Контейнер: MKV
Видео: AVC at 3049 Kbps 960 x 540 (1.778) at 23.976 fps
Аудио:
AC-3 at 192 Kbps 2 channels, 48.0 KHz Rus
AC-3 at 448 Kbps 6 channels, 48.0 KHz Eng
Mediainfo
Format : Matroska
File size : 1.29 GiB
Duration : 50mn 2s
Overall bit rate : 3 687 Kbps
Encoded date : UTC 2012-03-04 07:34:02
Writing application : mkvmerge v4.5.0 ('Speed of Light') built on Feb 1 2011 02:10:32
Writing library : libebml v1.2.0 + libmatroska v1.1.0
Video
ID : 1
Format : AVC
Format/Info : Advanced Video Codec
Format profile : High@L4.1
Format settings, CABAC : Yes
Format settings, ReFrames : 6 frames
Muxing mode : Container profile=Unknown@4.1
Codec ID : V_MPEG4/ISO/AVC
Duration : 49mn 59s
Bit rate : 2 974 Kbps
Width : 960 pixels
Height : 540 pixels
Display aspect ratio : 16:9
Frame rate : 23.976 fps
Resolution : 24 bits
Colorimetry : 4:2:0
Scan type : Progressive
Bits/(Pixel*Frame) : 0.239
Stream size : 1.04 GiB (81%)
Writing library : x264 core 116 r2074kMod 2641b9e
Encoding settings : cabac=1 / ref=6 / deblock=1:-1:-1 / analyse=0x3:0x113 / me=umh / subme=11 / psy=1 / fade_compensate=0.00 / psy_rd=1.00:0.10 / mixed_ref=1 / me_range=32 / chroma_me=1 / trellis=2 / 8x8dct=1 / cqm=0 / deadzone=21,11 / fast_pskip=1 / chroma_qp_offset=-3 / threads=3 / sliced_threads=0 / nr=0 / decimate=1 / interlaced=0 / bluray_compat=0 / constrained_intra=0 / bframes=8 / b_pyramid=2 / b_adapt=2 / b_bias=0 / direct=3 / weightb=1 / open_gop=0 / weightp=2 / keyint=250 / keyint_min=23 / scenecut=40 / intra_refresh=0 / rc_lookahead=60 / rc=crf / mbtree=0 / crf=19.4000 / qcomp=0.60 / qpmin=0 / qpmax=69 / qpstep=4 / vbv_maxrate=50000 / vbv_bufsize=62500 / crf_max=0.0 / nal_hrd=none / ip_ratio=1.30 / pb_ratio=1.20 / aq=3:0.70
Matrix coefficients : BT.709-5, BT.1361, IEC 61966-2-4 709, SMPTE RP177
Audio #1
ID : 2
Format : AC-3
Format/Info : Audio Coding 3
Format profile : Dolby Digital
Codec ID : A_AC3
Duration : 50mn 2s
Bit rate mode : Constant
Bit rate : 192 Kbps
Channel(s) : 2 channels
Channel positions : L R
Sampling rate : 48.0 KHz
Stream size : 68.7 MiB (5%)
Title : Русский
Language : Russian
Audio #2
ID : 3
Format : AC-3
Format/Info : Audio Coding 3
Codec ID : A_AC3
Duration : 50mn 2s
Bit rate mode : Constant
Bit rate : 448 Kbps
Channel(s) : 6 channels
Channel positions : Front: L C R, Surround: L R, LFE
Sampling rate : 48.0 KHz
Stream size : 160 MiB (12%)
Title : Оригинал
Text
ID : 4
Format : UTF-8
Codec ID : S_TEXT/UTF8
Codec ID/Info : UTF-8 Plain Text
Title : Русские
Language : Russian
Menu
00:00:00.000 : en:00:00:00.000
00:10:08.942 : en:00:10:08.942
00:21:11.479 : en:00:21:11.479
00:34:05.794 : en:00:34:05.794
00:42:26.961 : en:00:42:26.961
Log x264
x264 [info]: frame I:438 Avg QP:20.13 size: 92518
x264 [info]: frame P:14833 Avg QP:21.21 size: 28227
x264 [info]: frame B:56592 Avg QP:23.04 size: 12077
x264 [info]: consecutive B-frames: 1.8% 2.1% 5.3% 18.8% 19.4% 31.5% 9.4% 7.7% 3.9%
x264 [info]: mb I I16..4: 9.8% 72.1% 18.2%
x264 [info]: mb P I16..4: 0.8% 11.0% 1.2% P16..4: 30.1% 33.4% 16.5% 0.0% 0.0% skip: 6.9%
x264 [info]: mb B I16..4: 0.3% 3.1% 0.2% B16..8: 31.4% 21.4% 4.7% direct: 9.1% skip:29.8% L0:38.5% L1:41.7% BI:19.8%
x264 [info]: 8x8 transform intra:83.6% inter:58.4%
x264 [info]: direct mvs spatial:100.0% temporal:0.0%
x264 [info]: coded y,uvDC,uvAC intra: 94.9% 84.4% 55.8% inter: 32.3% 31.6% 10.2%
x264 [info]: i16 v,h,dc,p: 16% 12% 36% 35%
x264 [info]: i8 v,h,dc,ddl,ddr,vr,hd,vl,hu: 6% 7% 8% 10% 13% 12% 14% 14% 16%
x264 [info]: i4 v,h,dc,ddl,ddr,vr,hd,vl,hu: 11% 7% 10% 8% 14% 12% 14% 10% 14%
x264 [info]: i8c dc,h,v,p: 50% 23% 14% 13%
x264 [info]: Weighted P-Frames: Y:8.4% UV:3.5%
x264 [info]: ref P L0: 48.7% 14.7% 19.5% 6.3% 5.9% 4.4% 0.5% 0.0%
x264 [info]: ref B L0: 76.2% 13.8% 6.9% 2.3% 0.8%
x264 [info]: ref B L1: 91.6% 8.4%
x264 [info]: kb/s:3049.92
Скриншоты
3 серия - Пресная вода / Fresh Water
Описание: Пресная вода составляет всего 3 % от общих запасов вода на нашей планете, но источники пресной воды преподносят много сюрпризов. Вся жизнь на Земле в конечном счете зависит от них.
Тип релиза: BDRip-AVC
Контейнер: MKV
Видео: AVC at 4395 Kbps 960 x 540 (1.778) at 23.976 fps
Аудио:
AC-3 at 192 Kbps 2 channels, 48.0 KHz Rus
AC-3 at 448 Kbps 6 channels, 48.0 KHz Eng
Mediainfo
Format : Matroska
File size : 1.81 GiB
Duration : 51mn 26s
Overall bit rate : 5 029 Kbps
Encoded date : UTC 2012-03-05 09:28:51
Writing application : mkvmerge v4.5.0 ('Speed of Light') built on Feb 1 2011 02:10:32
Writing library : libebml v1.2.0 + libmatroska v1.1.0
Video
ID : 1
Format : AVC
Format/Info : Advanced Video Codec
Format profile : High@L4.1
Format settings, CABAC : Yes
Format settings, ReFrames : 6 frames
Muxing mode : Container profile=Unknown@4.1
Codec ID : V_MPEG4/ISO/AVC
Duration : 51mn 23s
Bit rate : 4 289 Kbps
Width : 960 pixels
Height : 540 pixels
Display aspect ratio : 16:9
Frame rate : 23.976 fps
Resolution : 24 bits
Colorimetry : 4:2:0
Scan type : Progressive
Bits/(Pixel*Frame) : 0.345
Stream size : 1.54 GiB (85%)
Writing library : x264 core 116 r2074kMod 2641b9e
Encoding settings : cabac=1 / ref=6 / deblock=1:-1:-1 / analyse=0x3:0x113 / me=umh / subme=11 / psy=1 / fade_compensate=0.00 / psy_rd=1.00:0.10 / mixed_ref=1 / me_range=32 / chroma_me=1 / trellis=2 / 8x8dct=1 / cqm=0 / deadzone=21,11 / fast_pskip=1 / chroma_qp_offset=-3 / threads=3 / sliced_threads=0 / nr=0 / decimate=1 / interlaced=0 / bluray_compat=0 / constrained_intra=0 / bframes=8 / b_pyramid=2 / b_adapt=2 / b_bias=0 / direct=3 / weightb=1 / open_gop=0 / weightp=2 / keyint=250 / keyint_min=23 / scenecut=40 / intra_refresh=0 / rc_lookahead=60 / rc=crf / mbtree=0 / crf=19.9000 / qcomp=0.60 / qpmin=0 / qpmax=69 / qpstep=4 / vbv_maxrate=50000 / vbv_bufsize=62500 / crf_max=0.0 / nal_hrd=none / ip_ratio=1.30 / pb_ratio=1.20 / aq=3:0.70
Matrix coefficients : BT.709-5, BT.1361, IEC 61966-2-4 709, SMPTE RP177
Audio #1
ID : 2
Format : AC-3
Format/Info : Audio Coding 3
Format profile : Dolby Digital
Codec ID : A_AC3
Duration : 51mn 26s
Bit rate mode : Constant
Bit rate : 192 Kbps
Channel(s) : 2 channels
Channel positions : L R
Sampling rate : 48.0 KHz
Stream size : 70.6 MiB (4%)
Title : Русский
Language : Russian
Audio #2
ID : 3
Format : AC-3
Format/Info : Audio Coding 3
Codec ID : A_AC3
Duration : 51mn 26s
Bit rate mode : Constant
Bit rate : 448 Kbps
Channel(s) : 6 channels
Channel positions : Front: L C R, Surround: L R, LFE
Sampling rate : 48.0 KHz
Stream size : 165 MiB (9%)
Title : Оригинал
Text
ID : 4
Format : UTF-8
Codec ID : S_TEXT/UTF8
Codec ID/Info : UTF-8 Plain Text
Title : Русские
Language : Russian
Menu
00:00:00.000 : en:00:00:00.000
00:09:55.428 : en:00:09:55.428
00:19:23.329 : en:00:19:23.329
00:30:32.664 : en:00:30:32.664
00:39:11.724 : en:00:39:11.724
Log x264
x264 [info]: frame I:399 Avg QP:21.09 size: 80552
x264 [info]: frame P:16783 Avg QP:22.48 size: 36823
x264 [info]: frame B:56676 Avg QP:23.96 size: 18391
x264 [info]: consecutive B-frames: 1.9% 2.4% 5.8% 34.0% 20.5% 28.1% 3.5% 2.1% 1.7%
x264 [info]: mb I I16..4: 11.7% 70.6% 17.7%
x264 [info]: mb P I16..4: 1.6% 22.1% 3.0% P16..4: 25.4% 31.0% 13.0% 0.0% 0.0% skip: 3.9%
x264 [info]: mb B I16..4: 0.5% 5.9% 0.7% B16..8: 32.6% 23.7% 6.1% direct:10.4% skip:20.0% L0:39.3% L1:42.8% BI:17.9%
x264 [info]: 8x8 transform intra:82.3% inter:61.5%
x264 [info]: direct mvs spatial:99.8% temporal:0.2%
x264 [info]: coded y,uvDC,uvAC intra: 95.5% 93.1% 74.2% inter: 43.9% 45.0% 17.0%
x264 [info]: i16 v,h,dc,p: 12% 16% 25% 46%
x264 [info]: i8 v,h,dc,ddl,ddr,vr,hd,vl,hu: 4% 12% 5% 9% 14% 10% 17% 10% 19%
x264 [info]: i4 v,h,dc,ddl,ddr,vr,hd,vl,hu: 6% 13% 5% 7% 13% 10% 17% 9% 19%
x264 [info]: i8c dc,h,v,p: 48% 27% 11% 15%
x264 [info]: Weighted P-Frames: Y:6.7% UV:2.6%
x264 [info]: ref P L0: 47.6% 15.0% 18.3% 7.2% 6.4% 4.9% 0.6% 0.0%
x264 [info]: ref B L0: 79.6% 11.4% 6.0% 2.2% 0.9%
x264 [info]: ref B L1: 93.5% 6.5%
x264 [info]: kb/s:4395.33
Скриншоты
4 серия - Пещеры / Caves
Описание: Таинственный мир, заглянуть в который осмеливаются только самые отважные смельчаки. Мир, в котором под нашими ногами на многие километры тянутся лабиринты пещер и тоннелей.
Тип релиза: BDRip-AVC
Контейнер: MKV
Видео: AVC at 3835 Kbps 960 x 540 (1.778) at 23.976 fps
Аудио:
AC-3 at 192 Kbps 2 channels, 48.0 KHz Rus
AC-3 at 448 Kbps 6 channels, 48.0 KHz Eng
Mediainfo
Format : Matroska
File size : 1.59 GiB
Duration : 51mn 8s
Overall bit rate : 4 456 Kbps
Encoded date : UTC 2012-03-05 09:50:28
Writing application : mkvmerge v4.5.0 ('Speed of Light') built on Feb 1 2011 02:10:32
Writing library : libebml v1.2.0 + libmatroska v1.1.0
Video
ID : 1
Format : AVC
Format/Info : Advanced Video Codec
Format profile : High@L4.1
Format settings, CABAC : Yes
Format settings, ReFrames : 6 frames
Muxing mode : Container profile=Unknown@4.1
Codec ID : V_MPEG4/ISO/AVC
Duration : 51mn 5s
Bit rate : 3 728 Kbps
Width : 960 pixels
Height : 540 pixels
Display aspect ratio : 16:9
Frame rate : 23.976 fps
Resolution : 24 bits
Colorimetry : 4:2:0
Scan type : Progressive
Bits/(Pixel*Frame) : 0.300
Stream size : 1.33 GiB (84%)
Writing library : x264 core 116 r2074kMod 2641b9e
Encoding settings : cabac=1 / ref=6 / deblock=1:-1:-1 / analyse=0x3:0x113 / me=umh / subme=11 / psy=1 / fade_compensate=0.00 / psy_rd=1.00:0.10 / mixed_ref=1 / me_range=32 / chroma_me=1 / trellis=2 / 8x8dct=1 / cqm=0 / deadzone=21,11 / fast_pskip=1 / chroma_qp_offset=-3 / threads=3 / sliced_threads=0 / nr=0 / decimate=1 / interlaced=0 / bluray_compat=0 / constrained_intra=0 / bframes=8 / b_pyramid=2 / b_adapt=2 / b_bias=0 / direct=3 / weightb=1 / open_gop=0 / weightp=2 / keyint=250 / keyint_min=23 / scenecut=40 / intra_refresh=0 / rc_lookahead=60 / rc=crf / mbtree=0 / crf=19.4000 / qcomp=0.60 / qpmin=0 / qpmax=69 / qpstep=4 / vbv_maxrate=50000 / vbv_bufsize=62500 / crf_max=0.0 / nal_hrd=none / ip_ratio=1.30 / pb_ratio=1.20 / aq=3:0.70
Matrix coefficients : BT.709-5, BT.1361, IEC 61966-2-4 709, SMPTE RP177
Audio #1
ID : 2
Format : AC-3
Format/Info : Audio Coding 3
Format profile : Dolby Digital
Codec ID : A_AC3
Duration : 51mn 8s
Bit rate mode : Constant
Bit rate : 192 Kbps
Channel(s) : 2 channels
Channel positions : L R
Sampling rate : 48.0 KHz
Stream size : 70.2 MiB (4%)
Title : Русский
Language : Russian
Audio #2
ID : 3
Format : AC-3
Format/Info : Audio Coding 3
Codec ID : A_AC3
Duration : 51mn 8s
Bit rate mode : Constant
Bit rate : 448 Kbps
Channel(s) : 6 channels
Channel positions : Front: L C R, Surround: L R, LFE
Sampling rate : 48.0 KHz
Stream size : 164 MiB (10%)
Title : Оригинал
Text
ID : 4
Format : UTF-8
Codec ID : S_TEXT/UTF8
Codec ID/Info : UTF-8 Plain Text
Title : Русские
Language : Russian
Menu
00:00:00.000 : en:00:00:00.000
00:07:28.657 : en:00:07:28.657
00:17:51.404 : en:00:17:51.404
00:25:49.423 : en:00:25:49.423
00:42:46.230 : en:00:42:46.230
Log x264
x264 [info]: frame I:416 Avg QP:18.24 size: 78638
x264 [info]: frame P:15289 Avg QP:19.33 size: 31203
x264 [info]: frame B:57457 Avg QP:21.04 size: 16591
x264 [info]: consecutive B-frames: 2.9% 1.7% 4.2% 15.0% 19.0% 36.4% 9.2% 6.8% 4.8%
x264 [info]: mb I I16..4: 19.8% 64.3% 15.8%
x264 [info]: mb P I16..4: 2.4% 14.2% 1.3% P16..4: 27.1% 32.4% 13.8% 0.0% 0.0% skip: 8.8%
x264 [info]: mb B I16..4: 1.0% 4.0% 0.3% B16..8: 32.5% 21.3% 4.7% direct:11.6% skip:24.6% L0:42.1% L1:41.3% BI:16.6%
x264 [info]: 8x8 transform intra:77.0% inter:53.3%
x264 [info]: direct mvs spatial:99.9% temporal:0.1%
x264 [info]: coded y,uvDC,uvAC intra: 90.5% 86.0% 72.2% inter: 37.1% 44.7% 21.4%
x264 [info]: i16 v,h,dc,p: 23% 9% 32% 36%
x264 [info]: i8 v,h,dc,ddl,ddr,vr,hd,vl,hu: 6% 7% 11% 10% 14% 11% 14% 11% 16%
x264 [info]: i4 v,h,dc,ddl,ddr,vr,hd,vl,hu: 9% 7% 11% 8% 13% 11% 14% 10% 16%
x264 [info]: i8c dc,h,v,p: 59% 19% 11% 11%
x264 [info]: Weighted P-Frames: Y:12.0% UV:6.2%
x264 [info]: ref P L0: 44.7% 10.8% 20.9% 8.5% 7.9% 6.1% 1.0% 0.0%
x264 [info]: ref B L0: 68.4% 16.9% 10.1% 3.6% 1.1%
x264 [info]: ref B L1: 89.9% 10.1%
x264 [info]: kb/s:3835.70
Скриншоты
5 серия - Пустыни / Deserts
Описание: Пустыни занимают треть поверхности суши Земли. Огромные рубцы на лице планеты кажутся безжизненными. Но, как ни странно, это не так. Во всех пустынях всегда была и продолжается жизнь.
Тип релиза: BDRip-AVC
Контейнер: MKV
Видео: AVC at 3745 Kbps 960 x 540 (1.778) at 23.976 fps
Аудио:
AC-3 at 192 Kbps 2 channels, 48.0 KHz Rus
AC-3 at 448 Kbps 6 channels, 48.0 KHz Eng
Mediainfo
Format : Matroska
File size : 1.56 GiB
Duration : 51mn 10s
Overall bit rate : 4 365 Kbps
Encoded date : UTC 2012-03-06 09:18:07
Writing application : mkvmerge v4.5.0 ('Speed of Light') built on Feb 1 2011 02:10:32
Writing library : libebml v1.2.0 + libmatroska v1.1.0
Video
ID : 1
Format : AVC
Format/Info : Advanced Video Codec
Format profile : High@L4.1
Format settings, CABAC : Yes
Format settings, ReFrames : 6 frames
Muxing mode : Container profile=Unknown@4.1
Codec ID : V_MPEG4/ISO/AVC
Duration : 51mn 7s
Bit rate : 3 638 Kbps
Width : 960 pixels
Height : 540 pixels
Display aspect ratio : 16:9
Frame rate : 23.976 fps
Resolution : 24 bits
Colorimetry : 4:2:0
Scan type : Progressive
Bits/(Pixel*Frame) : 0.293
Stream size : 1.30 GiB (83%)
Writing library : x264 core 116 r2074kMod 2641b9e
Encoding settings : cabac=1 / ref=6 / deblock=1:-1:-1 / analyse=0x3:0x113 / me=umh / subme=11 / psy=1 / fade_compensate=0.00 / psy_rd=1.15:0.10 / mixed_ref=1 / me_range=32 / chroma_me=1 / trellis=2 / 8x8dct=1 / cqm=0 / deadzone=21,11 / fast_pskip=1 / chroma_qp_offset=-3 / threads=3 / sliced_threads=0 / nr=0 / decimate=1 / interlaced=0 / bluray_compat=0 / constrained_intra=0 / bframes=8 / b_pyramid=2 / b_adapt=2 / b_bias=0 / direct=3 / weightb=1 / open_gop=0 / weightp=2 / keyint=250 / keyint_min=23 / scenecut=40 / intra_refresh=0 / rc_lookahead=60 / rc=crf / mbtree=0 / crf=19.4000 / qcomp=0.60 / qpmin=0 / qpmax=69 / qpstep=4 / vbv_maxrate=50000 / vbv_bufsize=62500 / crf_max=0.0 / nal_hrd=none / ip_ratio=1.30 / pb_ratio=1.20 / aq=3:0.70
Matrix coefficients : BT.709-5, BT.1361, IEC 61966-2-4 709, SMPTE RP177
Audio #1
ID : 2
Format : AC-3
Format/Info : Audio Coding 3
Format profile : Dolby Digital
Codec ID : A_AC3
Duration : 51mn 10s
Bit rate mode : Constant
Bit rate : 192 Kbps
Channel(s) : 2 channels
Channel positions : L R
Sampling rate : 48.0 KHz
Stream size : 70.3 MiB (4%)
Title : Русский
Language : Russian
Audio #2
ID : 3
Format : AC-3
Format/Info : Audio Coding 3
Codec ID : A_AC3
Duration : 51mn 10s
Bit rate mode : Constant
Bit rate : 448 Kbps
Channel(s) : 6 channels
Channel positions : Front: L C R, Surround: L R, LFE
Sampling rate : 48.0 KHz
Stream size : 164 MiB (10%)
Title : Оригинал
Text
ID : 4
Format : UTF-8
Codec ID : S_TEXT/UTF8
Codec ID/Info : UTF-8 Plain Text
Title : Русские
Language : Russian
Menu
00:00:00.000 : en:00:00:00.000
00:08:46.276 : en:00:08:46.276
00:18:43.706 : en:00:18:43.706
00:27:39.032 : en:00:27:39.032
00:35:22.912 : en:00:35:22.912
Log x264
x264 [info]: frame I:471 Avg QP:19.72 size: 88548
x264 [info]: frame P:14064 Avg QP:20.66 size: 31794
x264 [info]: frame B:58652 Avg QP:22.24 size: 16029
x264 [info]: consecutive B-frames: 1.5% 1.4% 3.6% 13.4% 18.6% 37.2% 10.7% 8.9% 4.8%
x264 [info]: mb I I16..4: 13.2% 70.3% 16.5%
x264 [info]: mb P I16..4: 1.2% 13.9% 1.3% P16..4: 29.4% 34.1% 14.5% 0.0% 0.0% skip: 5.6%
x264 [info]: mb B I16..4: 0.5% 4.0% 0.2% B16..8: 33.6% 22.6% 5.5% direct:10.0% skip:23.5% L0:41.3% L1:42.4% BI:16.3%
x264 [info]: 8x8 transform intra:83.7% inter:57.4%
x264 [info]: direct mvs spatial:100.0% temporal:0.0%
x264 [info]: coded y,uvDC,uvAC intra: 95.6% 92.9% 79.9% inter: 38.4% 39.1% 12.7%
x264 [info]: i16 v,h,dc,p: 14% 10% 34% 41%
x264 [info]: i8 v,h,dc,ddl,ddr,vr,hd,vl,hu: 5% 7% 10% 11% 14% 11% 15% 12% 16%
x264 [info]: i4 v,h,dc,ddl,ddr,vr,hd,vl,hu: 9% 8% 10% 9% 13% 11% 15% 10% 15%
x264 [info]: i8c dc,h,v,p: 59% 17% 10% 14%
x264 [info]: Weighted P-Frames: Y:9.1% UV:3.3%
x264 [info]: ref P L0: 44.0% 13.2% 21.4% 7.9% 7.3% 5.6% 0.6% 0.0%
x264 [info]: ref B L0: 72.2% 15.9% 8.2% 2.8% 0.9%
x264 [info]: ref B L1: 90.4% 9.6%
x264 [info]: kb/s:3745.07
Скриншоты
6 серия - Ледяные миры / Ice Worlds
Описание: Оба полюса нашей планеты покрыты льдом. Это самые обширные и самые суровые пустыни на планете. Экстремальные климатические условия делают жизнь здешних обитателей настоящей борьбой за выживание.
Тип релиза: BDRip-AVC
Контейнер: MKV
Видео: AVC at 2767 Kbps 960 x 540 (1.778) at 23.976 fps
Аудио:
AC-3 at 192 Kbps 2 channels, 48.0 KHz Rus
AC-3 at 448 Kbps 6 channels, 48.0 KHz Eng
Mediainfo
Format : Matroska
File size : 1.22 GiB
Duration : 51mn 27s
Overall bit rate : 3 395 Kbps
Encoded date : UTC 2012-03-07 06:14:56
Writing application : mkvmerge v4.5.0 ('Speed of Light') built on Feb 1 2011 02:10:32
Writing library : libebml v1.2.0 + libmatroska v1.1.0
Video
ID : 1
Format : AVC
Format/Info : Advanced Video Codec
Format profile : High@L4.1
Format settings, CABAC : Yes
Format settings, ReFrames : 6 frames
Muxing mode : Container profile=Unknown@4.1
Codec ID : V_MPEG4/ISO/AVC
Duration : 51mn 24s
Bit rate : 2 688 Kbps
Width : 960 pixels
Height : 540 pixels
Display aspect ratio : 16:9
Frame rate : 23.976 fps
Resolution : 24 bits
Colorimetry : 4:2:0
Scan type : Progressive
Bits/(Pixel*Frame) : 0.216
Stream size : 988 MiB (79%)
Writing library : x264 core 116 r2074kMod 2641b9e
Encoding settings : cabac=1 / ref=6 / deblock=1:-1:-1 / analyse=0x3:0x113 / me=umh / subme=11 / psy=1 / fade_compensate=0.00 / psy_rd=1.15:0.10 / mixed_ref=1 / me_range=32 / chroma_me=1 / trellis=2 / 8x8dct=1 / cqm=0 / deadzone=21,11 / fast_pskip=1 / chroma_qp_offset=-3 / threads=3 / sliced_threads=0 / nr=0 / decimate=1 / interlaced=0 / bluray_compat=0 / constrained_intra=0 / bframes=8 / b_pyramid=2 / b_adapt=2 / b_bias=0 / direct=3 / weightb=1 / open_gop=0 / weightp=2 / keyint=250 / keyint_min=23 / scenecut=40 / intra_refresh=0 / rc_lookahead=60 / rc=crf / mbtree=0 / crf=19.4000 / qcomp=0.60 / qpmin=0 / qpmax=69 / qpstep=4 / vbv_maxrate=50000 / vbv_bufsize=62500 / crf_max=0.0 / nal_hrd=none / ip_ratio=1.30 / pb_ratio=1.20 / aq=3:0.70
Matrix coefficients : BT.709-5, BT.1361, IEC 61966-2-4 709, SMPTE RP177
Audio #1
ID : 2
Format : AC-3
Format/Info : Audio Coding 3
Format profile : Dolby Digital
Codec ID : A_AC3
Duration : 51mn 27s
Bit rate mode : Constant
Bit rate : 192 Kbps
Channel(s) : 2 channels
Channel positions : L R
Sampling rate : 48.0 KHz
Stream size : 70.7 MiB (6%)
Title : Русский
Language : Russian
Audio #2
ID : 3
Format : AC-3
Format/Info : Audio Coding 3
Codec ID : A_AC3
Duration : 51mn 27s
Bit rate mode : Constant
Bit rate : 448 Kbps
Channel(s) : 6 channels
Channel positions : Front: L C R, Surround: L R, LFE
Sampling rate : 48.0 KHz
Stream size : 165 MiB (13%)
Title : Оригинал
Text
ID : 4
Format : UTF-8
Codec ID : S_TEXT/UTF8
Codec ID/Info : UTF-8 Plain Text
Title : Русские
Language : Russian
Menu
00:00:00.000 : en:00:00:00.000
00:08:43.273 : en:00:08:43.273
00:17:20.456 : en:00:17:20.456
00:31:46.113 : en:00:31:46.113
00:41:20.186 : en:00:41:20.186
Log x264
x264 [info]: frame I:438 Avg QP:18.89 size: 67636
x264 [info]: frame P:15259 Avg QP:20.10 size: 25600
x264 [info]: frame B:57930 Avg QP:21.57 size: 11084
x264 [info]: consecutive B-frames: 1.8% 1.9% 4.6% 18.7% 21.1% 35.9% 7.9% 5.2% 2.7%
x264 [info]: mb I I16..4: 10.0% 75.1% 14.9%
x264 [info]: mb P I16..4: 0.7% 11.4% 1.5% P16..4: 31.1% 37.5% 12.9% 0.0% 0.0% skip: 4.9%
x264 [info]: mb B I16..4: 0.1% 1.7% 0.2% B16..8: 36.8% 22.6% 4.1% direct: 8.2% skip:26.4% L0:41.0% L1:45.1% BI:14.0%
x264 [info]: 8x8 transform intra:83.1% inter:59.8%
x264 [info]: direct mvs spatial:100.0% temporal:0.0%
x264 [info]: coded y,uvDC,uvAC intra: 96.0% 89.1% 65.3% inter: 33.8% 28.6% 6.3%
x264 [info]: i16 v,h,dc,p: 15% 16% 25% 44%
x264 [info]: i8 v,h,dc,ddl,ddr,vr,hd,vl,hu: 5% 12% 6% 10% 13% 11% 15% 11% 17%
x264 [info]: i4 v,h,dc,ddl,ddr,vr,hd,vl,hu: 6% 25% 4% 6% 11% 9% 14% 8% 16%
x264 [info]: i8c dc,h,v,p: 44% 28% 13% 15%
x264 [info]: Weighted P-Frames: Y:6.6% UV:2.9%
x264 [info]: ref P L0: 46.8% 13.7% 19.8% 7.3% 6.6% 5.1% 0.6% 0.0%
x264 [info]: ref B L0: 77.6% 13.1% 6.3% 2.2% 0.8%
x264 [info]: ref B L1: 92.7% 7.3%
x264 [info]: kb/s:2767.52
Скриншоты
7 серия - Великие равнины / Great Plains
Описание: Обширные безлесные равнины, бескрайние просторы, тишина… Но ощущение пустоты – иллюзия. Равнины нашей планеты дают пищу самым многочисленным скоплениям животных на Земле.
Тип релиза: BDRip-AVC
Контейнер: MKV
Видео: AVC at 3677 Kbps 960 x 540 (1.778) at 23.976 fps
Аудио:
AC-3 at 192 Kbps 2 channels, 48.0 KHz Rus
AC-3 at 448 Kbps 6 channels, 48.0 KHz Eng
Mediainfo
Format : Matroska
File size : 1.54 GiB
Duration : 51mn 14s
Overall bit rate : 4 304 Kbps
Encoded date : UTC 2012-03-08 13:20:16
Writing application : mkvmerge v4.5.0 ('Speed of Light') built on Feb 1 2011 02:10:32
Writing library : libebml v1.2.0 + libmatroska v1.1.0
Video
ID : 1
Format : AVC
Format/Info : Advanced Video Codec
Format profile : High@L4.1
Format settings, CABAC : Yes
Format settings, ReFrames : 6 frames
Muxing mode : Container profile=Unknown@4.1
Codec ID : V_MPEG4/ISO/AVC
Duration : 51mn 11s
Bit rate : 3 578 Kbps
Width : 960 pixels
Height : 540 pixels
Display aspect ratio : 16:9
Frame rate : 23.976 fps
Resolution : 24 bits
Colorimetry : 4:2:0
Scan type : Progressive
Bits/(Pixel*Frame) : 0.288
Stream size : 1.28 GiB (83%)
Writing library : x264 core 116 r2074kMod 2641b9e
Encoding settings : cabac=1 / ref=6 / deblock=1:-1:-1 / analyse=0x3:0x113 / me=umh / subme=11 / psy=1 / fade_compensate=0.00 / psy_rd=1.15:0.10 / mixed_ref=1 / me_range=32 / chroma_me=1 / trellis=2 / 8x8dct=1 / cqm=0 / deadzone=21,11 / fast_pskip=1 / chroma_qp_offset=-3 / threads=3 / sliced_threads=0 / nr=0 / decimate=1 / interlaced=0 / bluray_compat=0 / constrained_intra=0 / bframes=8 / b_pyramid=2 / b_adapt=2 / b_bias=0 / direct=3 / weightb=1 / open_gop=0 / weightp=2 / keyint=250 / keyint_min=23 / scenecut=40 / intra_refresh=0 / rc_lookahead=60 / rc=crf / mbtree=0 / crf=19.8000 / qcomp=0.60 / qpmin=0 / qpmax=69 / qpstep=4 / vbv_maxrate=50000 / vbv_bufsize=62500 / crf_max=0.0 / nal_hrd=none / ip_ratio=1.30 / pb_ratio=1.20 / aq=3:0.70
Matrix coefficients : BT.709-5, BT.1361, IEC 61966-2-4 709, SMPTE RP177
Audio #1
ID : 2
Format : AC-3
Format/Info : Audio Coding 3
Format profile : Dolby Digital
Codec ID : A_AC3
Duration : 51mn 14s
Bit rate mode : Constant
Bit rate : 192 Kbps
Channel(s) : 2 channels
Channel positions : L R
Sampling rate : 48.0 KHz
Stream size : 70.4 MiB (4%)
Title : Русский
Language : Russian
Audio #2
ID : 3
Format : AC-3
Format/Info : Audio Coding 3
Codec ID : A_AC3
Duration : 51mn 14s
Bit rate mode : Constant
Bit rate : 448 Kbps
Channel(s) : 6 channels
Channel positions : Front: L C R, Surround: L R, LFE
Sampling rate : 48.0 KHz
Stream size : 164 MiB (10%)
Title : Оригинал
Text
ID : 4
Format : UTF-8
Codec ID : S_TEXT/UTF8
Codec ID/Info : UTF-8 Plain Text
Title : Русские
Language : Russian
Menu
00:00:00.000 : en:00:00:00.000
00:08:38.768 : en:00:08:38.768
00:18:53.174 : en:00:18:53.174
00:26:37.721 : en:00:26:37.721
00:38:41.194 : en:00:38:41.194
Log x264
x264 [info]: frame I:430 Avg QP:20.93 size: 80731
x264 [info]: frame P:16627 Avg QP:22.12 size: 31744
x264 [info]: frame B:56342 Avg QP:23.62 size: 14995
x264 [info]: consecutive B-frames: 2.4% 3.7% 6.6% 24.0% 22.6% 26.3% 7.2% 4.5% 2.8%
x264 [info]: mb I I16..4: 8.8% 75.0% 16.2%
x264 [info]: mb P I16..4: 0.7% 13.9% 1.5% P16..4: 28.7% 35.4% 14.9% 0.0% 0.0% skip: 4.8%
x264 [info]: mb B I16..4: 0.3% 3.5% 0.3% B16..8: 35.4% 23.5% 5.5% direct: 9.2% skip:22.4% L0:39.3% L1:44.5% BI:16.3%
x264 [info]: 8x8 transform intra:85.4% inter:60.1%
x264 [info]: direct mvs spatial:99.8% temporal:0.2%
x264 [info]: coded y,uvDC,uvAC intra: 96.9% 88.6% 66.7% inter: 41.0% 33.3% 10.2%
x264 [info]: i16 v,h,dc,p: 13% 14% 34% 39%
x264 [info]: i8 v,h,dc,ddl,ddr,vr,hd,vl,hu: 6% 8% 6% 10% 14% 13% 15% 12% 15%
x264 [info]: i4 v,h,dc,ddl,ddr,vr,hd,vl,hu: 9% 10% 4% 8% 14% 13% 16% 10% 15%
x264 [info]: i8c dc,h,v,p: 48% 22% 14% 16%
x264 [info]: Weighted P-Frames: Y:5.4% UV:1.9%
x264 [info]: ref P L0: 48.3% 15.5% 18.4% 6.6% 6.0% 4.7% 0.6% 0.0%
x264 [info]: ref B L0: 77.8% 12.6% 6.5% 2.2% 0.8%
x264 [info]: ref B L1: 92.6% 7.4%
x264 [info]: kb/s:3677.82
Скриншоты
8 серия - Джунгли / Jungles
Описание: Это оранжерея нашей планеты. Влажные тропические леса занимают лишь 3 % поверхности суши, однако в них обитает больше половины биологических видов планеты.
Тип релиза: BDRip-AVC
Контейнер: MKV
Видео: AVC at 2841 Kbps 960 x 540 (1.778) at 23.976 fps
Аудио:
AC-3 at 192 Kbps 2 channels, 48.0 KHz Rus
AC-3 at 448 Kbps 6 channels, 48.0 KHz Eng
Mediainfo
Format : Matroska
File size : 1.28 GiB
Duration : 51mn 23s
Overall bit rate : 3 552 Kbps
Encoded date : UTC 2012-03-09 05:54:44
Writing application : mkvmerge v4.5.0 ('Speed of Light') built on Feb 1 2011 02:10:32
Writing library : libebml v1.2.0 + libmatroska v1.1.0
Video
ID : 1
Format : AVC
Format/Info : Advanced Video Codec
Format profile : High@L4.1
Format settings, CABAC : Yes
Format settings, ReFrames : 6 frames
Muxing mode : Container profile=Unknown@4.1
Codec ID : V_MPEG4/ISO/AVC
Duration : 51mn 20s
Bit rate : 2 841 Kbps
Width : 960 pixels
Height : 540 pixels
Display aspect ratio : 16:9
Frame rate : 23.976 fps
Resolution : 24 bits
Colorimetry : 4:2:0
Scan type : Progressive
Bits/(Pixel*Frame) : 0.229
Stream size : 1.02 GiB (80%)
Writing library : x264 core 116 r2074kMod 2641b9e
Encoding settings : cabac=1 / ref=6 / deblock=1:-1:-1 / analyse=0x3:0x113 / me=umh / subme=11 / psy=1 / fade_compensate=0.00 / psy_rd=1.15:0.10 / mixed_ref=1 / me_range=32 / chroma_me=1 / trellis=2 / 8x8dct=1 / cqm=0 / deadzone=21,11 / fast_pskip=1 / chroma_qp_offset=-3 / threads=3 / sliced_threads=0 / nr=0 / decimate=1 / interlaced=0 / bluray_compat=0 / constrained_intra=0 / bframes=8 / b_pyramid=2 / b_adapt=2 / b_bias=0 / direct=3 / weightb=1 / open_gop=0 / weightp=2 / keyint=250 / keyint_min=23 / scenecut=40 / intra_refresh=0 / rc_lookahead=60 / rc=crf / mbtree=0 / crf=19.6000 / qcomp=0.60 / qpmin=0 / qpmax=69 / qpstep=4 / vbv_maxrate=50000 / vbv_bufsize=62500 / crf_max=0.0 / nal_hrd=none / ip_ratio=1.30 / pb_ratio=1.20 / aq=3:0.70
Matrix coefficients : BT.709-5, BT.1361, IEC 61966-2-4 709, SMPTE RP177
Audio #1
ID : 2
Format : AC-3
Format/Info : Audio Coding 3
Format profile : Dolby Digital
Codec ID : A_AC3
Duration : 51mn 23s
Bit rate mode : Constant
Bit rate : 192 Kbps
Channel(s) : 2 channels
Channel positions : L R
Sampling rate : 48.0 KHz
Stream size : 70.6 MiB (5%)
Title : Русский
Language : Russian
Audio #2
ID : 3
Format : AC-3
Format/Info : Audio Coding 3
Codec ID : A_AC3
Duration : 51mn 23s
Bit rate mode : Constant
Bit rate : 448 Kbps
Channel(s) : 6 channels
Channel positions : Front: L C R, Surround: L R, LFE
Sampling rate : 48.0 KHz
Stream size : 165 MiB (13%)
Title : Оригинал
Text
ID : 4
Format : UTF-8
Codec ID : S_TEXT/UTF8
Codec ID/Info : UTF-8 Plain Text
Title : Русские
Language : Russian
Menu
00:00:00.000 : en:00:00:00.000
00:10:22.539 : en:00:10:22.539
00:22:21.423 : en:00:22:21.423
00:31:36.061 : en:00:31:36.061
00:37:23.199 : en:00:37:23.199
Скриншоты
9 серия - Мелководные моря / Shallow Seas
Описание: Они расположены на континентальных шельфах, простирающихся на сотни километров. Мелководные моря составляют лишь 8 % поверхности мирового океана, но в них обитает подавляющее большинство морских животных.
Тип релиза: BDRip-AVC
Контейнер: MKV
Видео: AVC at 4082 Kbps 960 x 540 (1.778) at 23.976 fps
Аудио:
AC-3 at 192 Kbps 2 channels, 48.0 KHz Rus
AC-3 at 448 Kbps 6 channels, 48.0 KHz Eng
Mediainfo
Format : Matroska
File size : 1.73 GiB
Duration : 51mn 27s
Overall bit rate : 4 817 Kbps
Encoded date : UTC 2012-03-10 06:24:16
Writing application : mkvmerge v4.5.0 ('Speed of Light') built on Feb 1 2011 02:10:32
Writing library : libebml v1.2.0 + libmatroska v1.1.0
Video
ID : 1
Format : AVC
Format/Info : Advanced Video Codec
Format profile : High@L4.1
Format settings, CABAC : Yes
Format settings, ReFrames : 6 frames
Muxing mode : Container profile=Unknown@4.1
Codec ID : V_MPEG4/ISO/AVC
Duration : 51mn 24s
Bit rate : 4 082 Kbps
Width : 960 pixels
Height : 540 pixels
Display aspect ratio : 16:9
Frame rate : 23.976 fps
Resolution : 24 bits
Colorimetry : 4:2:0
Scan type : Progressive
Bits/(Pixel*Frame) : 0.328
Stream size : 1.47 GiB (85%)
Writing library : x264 core 116 r2074kMod 2641b9e
Encoding settings : cabac=1 / ref=6 / deblock=1:-1:-1 / analyse=0x3:0x113 / me=umh / subme=11 / psy=1 / fade_compensate=0.00 / psy_rd=1.15:0.10 / mixed_ref=1 / me_range=32 / chroma_me=1 / trellis=2 / 8x8dct=1 / cqm=0 / deadzone=21,11 / fast_pskip=1 / chroma_qp_offset=-3 / threads=3 / sliced_threads=0 / nr=0 / decimate=1 / interlaced=0 / bluray_compat=0 / constrained_intra=0 / bframes=8 / b_pyramid=2 / b_adapt=2 / b_bias=0 / direct=3 / weightb=1 / open_gop=0 / weightp=2 / keyint=250 / keyint_min=23 / scenecut=40 / intra_refresh=0 / rc_lookahead=60 / rc=crf / mbtree=0 / crf=19.7000 / qcomp=0.60 / qpmin=0 / qpmax=69 / qpstep=4 / vbv_maxrate=50000 / vbv_bufsize=62500 / crf_max=0.0 / nal_hrd=none / ip_ratio=1.30 / pb_ratio=1.20 / aq=3:0.70
Matrix coefficients : BT.709-5, BT.1361, IEC 61966-2-4 709, SMPTE RP177
Audio #1
ID : 2
Format : AC-3
Format/Info : Audio Coding 3
Format profile : Dolby Digital
Codec ID : A_AC3
Duration : 51mn 27s
Bit rate mode : Constant
Bit rate : 192 Kbps
Channel(s) : 2 channels
Channel positions : L R
Sampling rate : 48.0 KHz
Stream size : 70.7 MiB (4%)
Title : Русский
Language : Russian
Audio #2
ID : 3
Format : AC-3
Format/Info : Audio Coding 3
Codec ID : A_AC3
Duration : 51mn 27s
Bit rate mode : Constant
Bit rate : 448 Kbps
Channel(s) : 6 channels
Channel positions : Front: L C R, Surround: L R, LFE
Sampling rate : 48.0 KHz
Stream size : 165 MiB (9%)
Title : Оригинал
Text
ID : 4
Format : UTF-8
Codec ID : S_TEXT/UTF8
Codec ID/Info : UTF-8 Plain Text
Title : Русские
Language : Russian
Menu
00:00:00.000 : en:00:00:00.000
00:12:59.988 : en:00:12:59.988
00:20:15.089 : en:00:20:15.089
00:30:03.260 : en:00:30:03.260
00:40:49.572 : en:00:40:49.572
Скриншоты
10 серия - Сезонные леса / Seasonal Forests
Описание: Деревья, бесспорно, самые величественные из всех живых существ. Некоторые из них являются самыми крупными живыми организмами на Земле. Лиственные и хвойные деревья, растущие в сезонных областях нашей планеты, образуют самые обширные леса на Земле.
Тип релиза: BDRip-AVC
Контейнер: MKV
Видео: AVC at 3016 Kbps 960 x 540 (1.778) at 23.976 fps
Аудио:
AC-3 at 192 Kbps 2 channels, 48.0 KHz Rus
AC-3 at 448 Kbps 6 channels, 48.0 KHz Eng
Mediainfo
Format : Matroska
File size : 1.31 GiB
Duration : 51mn 29s
Overall bit rate : 3 643 Kbps
Encoded date : UTC 2012-03-11 08:23:27
Writing application : mkvmerge v4.5.0 ('Speed of Light') built on Feb 1 2011 02:10:32
Writing library : libebml v1.2.0 + libmatroska v1.1.0
Video
ID : 1
Format : AVC
Format/Info : Advanced Video Codec
Format profile : High@L4.1
Format settings, CABAC : Yes
Format settings, ReFrames : 6 frames
Muxing mode : Container profile=Unknown@4.1
Codec ID : V_MPEG4/ISO/AVC
Duration : 51mn 26s
Bit rate : 2 930 Kbps
Width : 960 pixels
Height : 540 pixels
Display aspect ratio : 16:9
Frame rate : 23.976 fps
Resolution : 24 bits
Colorimetry : 4:2:0
Scan type : Progressive
Bits/(Pixel*Frame) : 0.236
Stream size : 1.05 GiB (80%)
Writing library : x264 core 116 r2074kMod 2641b9e
Encoding settings : cabac=1 / ref=6 / deblock=1:-1:-1 / analyse=0x3:0x113 / me=umh / subme=11 / psy=1 / fade_compensate=0.00 / psy_rd=1.15:0.10 / mixed_ref=1 / me_range=32 / chroma_me=1 / trellis=2 / 8x8dct=1 / cqm=0 / deadzone=21,11 / fast_pskip=1 / chroma_qp_offset=-3 / threads=3 / sliced_threads=0 / nr=0 / decimate=1 / interlaced=0 / bluray_compat=0 / constrained_intra=0 / bframes=8 / b_pyramid=2 / b_adapt=2 / b_bias=0 / direct=3 / weightb=1 / open_gop=0 / weightp=2 / keyint=250 / keyint_min=23 / scenecut=40 / intra_refresh=0 / rc_lookahead=60 / rc=crf / mbtree=0 / crf=19.4000 / qcomp=0.60 / qpmin=0 / qpmax=69 / qpstep=4 / vbv_maxrate=50000 / vbv_bufsize=62500 / crf_max=0.0 / nal_hrd=none / ip_ratio=1.30 / pb_ratio=1.20 / aq=3:0.70
Matrix coefficients : BT.709-5, BT.1361, IEC 61966-2-4 709, SMPTE RP177
Audio #1
ID : 2
Format : AC-3
Format/Info : Audio Coding 3
Format profile : Dolby Digital
Codec ID : A_AC3
Duration : 51mn 29s
Bit rate mode : Constant
Bit rate : 192 Kbps
Channel(s) : 2 channels
Channel positions : L R
Sampling rate : 48.0 KHz
Stream size : 70.7 MiB (5%)
Title : Русский
Language : Russian
Audio #2
ID : 3
Format : AC-3
Format/Info : Audio Coding 3
Codec ID : A_AC3
Duration : 51mn 29s
Bit rate mode : Constant
Bit rate : 448 Kbps
Channel(s) : 6 channels
Channel positions : Front: L C R, Surround: L R, LFE
Sampling rate : 48.0 KHz
Stream size : 165 MiB (12%)
Title : Оригинал
Text
ID : 4
Format : UTF-8
Codec ID : S_TEXT/UTF8
Codec ID/Info : UTF-8 Plain Text
Title : Русские
Language : Russian
Menu
00:00:00.000 : en:00:00:00.000
00:09:12.761 : en:00:09:12.761
00:21:21.655 : en:00:21:21.655
00:31:05.739 : en:00:31:05.739
00:43:38.366 : en:00:43:38.366
Log x264
x264 [info]: frame I:511 Avg QP:20.24 size: 84951
x264 [info]: frame P:16276 Avg QP:21.61 size: 29956
x264 [info]: frame B:56891 Avg QP:22.96 size: 11034
x264 [info]: consecutive B-frames: 2.0% 2.4% 6.4% 29.5% 18.7% 26.6% 7.3% 4.2% 2.8%
x264 [info]: mb I I16..4: 8.4% 73.5% 18.1%
x264 [info]: mb P I16..4: 0.8% 11.5% 1.5% P16..4: 29.6% 34.8% 16.2% 0.0% 0.0% skip: 5.5%
x264 [info]: mb B I16..4: 0.2% 2.0% 0.2% B16..8: 33.0% 22.3% 4.7% direct: 9.0% skip:28.5% L0:36.8% L1:43.9% BI:19.3%
x264 [info]: 8x8 transform intra:82.0% inter:57.1%
x264 [info]: direct mvs spatial:100.0% temporal:0.0%
x264 [info]: coded y,uvDC,uvAC intra: 94.4% 92.0% 70.9% inter: 32.0% 32.5% 9.6%
x264 [info]: i16 v,h,dc,p: 19% 13% 22% 46%
x264 [info]: i8 v,h,dc,ddl,ddr,vr,hd,vl,hu: 6% 7% 5% 10% 15% 13% 15% 12% 15%
x264 [info]: i4 v,h,dc,ddl,ddr,vr,hd,vl,hu: 9% 9% 5% 8% 16% 13% 16% 11% 14%
x264 [info]: i8c dc,h,v,p: 49% 20% 14% 16%
x264 [info]: Weighted P-Frames: Y:6.2% UV:2.8%
x264 [info]: ref P L0: 50.2% 15.0% 18.7% 5.9% 5.5% 4.2% 0.5% 0.0%
x264 [info]: ref B L0: 80.7% 11.6% 5.2% 1.8% 0.7%
x264 [info]: ref B L1: 93.4% 6.6%
x264 [info]: kb/s:3016.52
Скриншоты
11 серия - Глубины океанов / Ocean Deep
Описание: Мир за пределами суши. Океан. Он покрывает 2/3 земной поверхности, при этом большая его часть для нас недосягаема. Жизнь обитателей океанских глубин проходит в постоянных поисках пищи и в борьбе за выживание.
Тип релиза: BDRip-AVC
Контейнер: MKV
Видео: AVC at 3358 Kbps 960 x 540 (1.778) at 23.976 fps
Аудио:
AC-3 at 192 Kbps 2 channels, 48.0 KHz Rus
AC-3 at 448 Kbps 6 channels, 48.0 KHz Eng
Mediainfo
Format : Matroska
File size : 1.43 GiB
Duration : 51mn 22s
Overall bit rate : 3 985 Kbps
Encoded date : UTC 2012-03-12 09:24:50
Writing application : mkvmerge v4.5.0 ('Speed of Light') built on Feb 1 2011 02:10:32
Writing library : libebml v1.2.0 + libmatroska v1.1.0
Video
ID : 1
Format : AVC
Format/Info : Advanced Video Codec
Format profile : High@L4.1
Format settings, CABAC : Yes
Format settings, ReFrames : 6 frames
Muxing mode : Container profile=Unknown@4.1
Codec ID : V_MPEG4/ISO/AVC
Duration : 51mn 19s
Bit rate : 3 265 Kbps
Width : 960 pixels
Height : 540 pixels
Display aspect ratio : 16:9
Frame rate : 23.976 fps
Resolution : 24 bits
Colorimetry : 4:2:0
Scan type : Progressive
Bits/(Pixel*Frame) : 0.263
Stream size : 1.17 GiB (82%)
Writing library : x264 core 116 r2074kMod 2641b9e
Encoding settings : cabac=1 / ref=6 / deblock=1:-1:-1 / analyse=0x3:0x113 / me=umh / subme=11 / psy=1 / fade_compensate=0.00 / psy_rd=1.15:0.10 / mixed_ref=1 / me_range=32 / chroma_me=1 / trellis=2 / 8x8dct=1 / cqm=0 / deadzone=21,11 / fast_pskip=1 / chroma_qp_offset=-3 / threads=3 / sliced_threads=0 / nr=0 / decimate=1 / interlaced=0 / bluray_compat=0 / constrained_intra=0 / bframes=8 / b_pyramid=2 / b_adapt=2 / b_bias=0 / direct=3 / weightb=1 / open_gop=0 / weightp=2 / keyint=250 / keyint_min=23 / scenecut=40 / intra_refresh=0 / rc_lookahead=60 / rc=crf / mbtree=0 / crf=19.4000 / qcomp=0.60 / qpmin=0 / qpmax=69 / qpstep=4 / vbv_maxrate=50000 / vbv_bufsize=62500 / crf_max=0.0 / nal_hrd=none / ip_ratio=1.30 / pb_ratio=1.20 / aq=3:0.70
Matrix coefficients : BT.709-5, BT.1361, IEC 61966-2-4 709, SMPTE RP177
Audio #1
ID : 2
Format : AC-3
Format/Info : Audio Coding 3
Format profile : Dolby Digital
Codec ID : A_AC3
Duration : 51mn 22s
Bit rate mode : Constant
Bit rate : 192 Kbps
Channel(s) : 2 channels
Channel positions : L R
Sampling rate : 48.0 KHz
Stream size : 70.6 MiB (5%)
Title : Русский
Language : Russian
Audio #2
ID : 3
Format : AC-3
Format/Info : Audio Coding 3
Codec ID : A_AC3
Duration : 51mn 22s
Bit rate mode : Constant
Bit rate : 448 Kbps
Channel(s) : 6 channels
Channel positions : Front: L C R, Surround: L R, LFE
Sampling rate : 48.0 KHz
Stream size : 165 MiB (11%)
Title : Оригинальный
Text
ID : 4
Format : UTF-8
Codec ID : S_TEXT/UTF8
Codec ID/Info : UTF-8 Plain Text
Title : Русские
Language : Russian
Menu
00:00:00.000 : en:00:00:00.000
00:11:39.949 : en:00:11:39.949
00:19:37.218 : en:00:19:37.218
00:30:12.227 : en:00:30:12.227
00:38:51.871 : en:00:38:51.871
Log x264
x264 [info]: frame I:361 Avg QP:17.34 size: 67490
x264 [info]: frame P:16744 Avg QP:18.85 size: 29945
x264 [info]: frame B:56470 Avg QP:20.24 size: 13500
x264 [info]: consecutive B-frames: 3.0% 3.0% 5.3% 22.7% 21.4% 33.7% 5.7% 2.9% 2.3%
x264 [info]: mb I I16..4: 16.5% 67.9% 15.5%
x264 [info]: mb P I16..4: 1.2% 9.9% 1.9% P16..4: 29.1% 37.0% 13.4% 0.0% 0.0% skip: 7.5%
x264 [info]: mb B I16..4: 0.4% 1.7% 0.3% B16..8: 36.9% 21.8% 4.5% direct:10.3% skip:24.1% L0:40.9% L1:45.1% BI:14.0%
x264 [info]: 8x8 transform intra:73.0% inter:52.1%
x264 [info]: direct mvs spatial:100.0% temporal:0.0%
x264 [info]: coded y,uvDC,uvAC intra: 91.3% 88.8% 72.6% inter: 36.2% 36.8% 11.5%
x264 [info]: i16 v,h,dc,p: 25% 12% 26% 37%
x264 [info]: i8 v,h,dc,ddl,ddr,vr,hd,vl,hu: 4% 11% 8% 10% 13% 9% 17% 10% 18%
x264 [info]: i4 v,h,dc,ddl,ddr,vr,hd,vl,hu: 5% 10% 10% 7% 14% 10% 18% 8% 18%
x264 [info]: i8c dc,h,v,p: 52% 25% 11% 12%
x264 [info]: Weighted P-Frames: Y:7.7% UV:2.4%
x264 [info]: ref P L0: 47.5% 11.9% 18.5% 8.4% 7.1% 5.9% 0.7% 0.0%
x264 [info]: ref B L0: 76.7% 13.2% 6.8% 2.3% 0.9%
x264 [info]: ref B L1: 92.7% 7.3%
x264 [info]: kb/s:3358.07
Скриншоты
FAQ по просмотру MKV/h.264/AAC
  1. Смогу ли я запустить AVC фильм на своём компьютере?
  2. Сампл из раздачи не воспроизводится/тормозит или отсутствует звук/изображение. Что делать?
  3. Что такое H.264/AVC и зачем он нужен?
  4. Что за дурацкий формат .MKV?
  5. Почему MKV? Чем AVI хуже?
  6. Не могу переключить/включить/выключить аудио/видео дорожки и/или субтитры. Что делать?
  7. Как сделать так, чтобы по умолчанию при просмотре MKV файлов нужные/ненужные субтитры были включены/выключены, и/или сразу проигрывалась дорожка на нужном мне языке?
  8. Будут ли фильмы в таком формате проигрываться на бытовых плеерах без компьютера?
  9. Проигрываю фильм, а картинка очень сильно отличается от скринов/бледная/перенасыщенная. Что не так?
  10. Можно ли сконвертировать AVC в DVD?
  11. Почему сплюснута картинка / в характеристиках видео указано два разрешения / что такое анаморфное разрешение?
  12. Зачем релизёры обманывают качающих и пишут в заголовке 720p/1080p, а на самом деле раздают видеоматериалы в непонятных разрешениях?
  13. Можно ли вывести многоканальный FLAC/AAC-звук на внешний ресивер?
  14. У меня 2-канальная акустика/стереонаушники. При просмотре видео почти не слышно/совсем не слышно речь/разговоры, играют только фоновые звуки. Что делать?
  15. У меня стоит CoreAVC версии 1.9.5 или младше. При воспроизведении картинка рассыпается на квадраты и разноцветные пятна. Кривой рип?
  16. Всё прочитал(-а), решения своей проблемы не нашёл(-шла)/не смог(-ла) разобраться. Что делать?

Обсуждение релизов в AVC формате / Свежие AVC рипы / - Заказ рипов в AVC -
Download
Чтобы скачать .torrent файл необходима регистрация
Сайт не распространяет и не хранит электронные версии произведений, а лишь предоставляет доступ к создаваемому пользователями каталогу ссылок на торрент-файлы, которые содержат только списки хеш-сумм
[Профиль]  [ЛС] 
 

Nitey

Стаж: 11 лет

Сообщений: 2639

Nitey · 12-Мар-12 14:09 (спустя 8 дней)

[Цитировать] 

vovaniez
Спасибо! У меня какой-то трехлетний 576р рип лежит, заменю твоим.
[Профиль]  [ЛС] 

vovaniez

Стаж: 8 лет 9 месяцев

Сообщений: 4931

vovaniez · 12-Мар-12 15:53 (спустя 1 час 44 мин.)

[Цитировать] 

Nitey
Пожалуйста
[Профиль]  [ЛС] 

Naillion

Стаж: 8 лет 7 месяцев

Сообщений: 91

Naillion · 12-Мар-12 17:17 (спустя 1 час 24 мин.)

[Цитировать] 

Здорово, спасибо за релиз, посмотрим. Нет желания сделать рип этого документального фильма BBC: Life? http://1.maintracker.org/forum/viewtopic.php?t=3806832
[Профиль]  [ЛС] 

vovaniez

Стаж: 8 лет 9 месяцев

Сообщений: 4931

vovaniez · 12-Мар-12 17:33 (спустя 15 мин., ред. 12-Мар-12 17:33)

[Цитировать] 

Naillion писал(а):
Нет желания сделать рип этого документального фильма BBC: Life? http://1.maintracker.org/forum/viewtopic.php?t=3806832
Можно.
Но сейчас делаю данный фильм с BD в AVC. После возьмусь за ваш заказ
[Профиль]  [ЛС] 

extradicia

Top Bonus 01* 300GB

Стаж: 8 лет 1 месяц

Сообщений: 97

extradicia · 13-Мар-12 07:04 (спустя 13 часов)

[Цитировать] 

подскажите источник рипа.
[Профиль]  [ЛС] 

- Джон Коннор -

Стаж: 9 лет 8 месяцев

Сообщений: 4201

- Джон Коннор - · 13-Мар-12 08:01 (спустя 57 мин.)

[Цитировать] 

extradicia писал(а):
подскажите источник рипа.
http://1.maintracker.org/forum/viewtopic.php?t=3529086
[Профиль]  [ЛС] 

extradicia

Top Bonus 01* 300GB

Стаж: 8 лет 1 месяц

Сообщений: 97

extradicia · 13-Мар-12 10:26 (спустя 2 часа 24 мин.)

[Цитировать] 

- Джон Коннор - писал(а):
extradicia писал(а):
подскажите источник рипа.
http://1.maintracker.org/forum/viewtopic.php?t=3529086
спасибо за ответ.
[Профиль]  [ЛС] 

mnik39

Стаж: 8 лет 4 месяца

Сообщений: 47


mnik39 · 13-Мар-12 15:23 (спустя 4 часа)

[Цитировать] 

Подскажите , как можно впихнуть в 16гиговую флэшку ?? (по факту там еще меньше ).
С работы до дома донести .
[Профиль]  [ЛС] 

vovaniez

Стаж: 8 лет 9 месяцев

Сообщений: 4931

vovaniez · 13-Мар-12 15:29 (спустя 5 мин.)

[Цитировать] 

mnik39
Скачать 10 серий и на следующий день донести 11 серию.
[Профиль]  [ЛС] 

mnik39

Стаж: 8 лет 4 месяца

Сообщений: 47


mnik39 · 13-Мар-12 15:38 (спустя 9 мин.)

[Цитировать] 

ОК!
Я то думал что все в одном файле .
Спасибо .
[Профиль]  [ЛС] 

ЭГО

Стаж: 11 лет 1 месяц

Сообщений: 82


ЭГО · 14-Мар-12 23:03 (спустя 1 день 7 часов, ред. 14-Мар-12 23:03)

[Цитировать] 

Приветствую!
В сети встречался 6 канальная озвучка в 384 кбс с дроздовым.
тут вот hddvd rip с таким звуком. И от hq-video авишный bdrip был когда то.
Есть какието мысли? Там звук был плох? Или типа пересобран с 2 на оригинальную 6?
Просто шикарный сериал, картинка, а всего лишь в стерео. Как то
[Профиль]  [ЛС] 

vovaniez

Стаж: 8 лет 9 месяцев

Сообщений: 4931

vovaniez · 19-Мар-12 18:12 (спустя 4 дня)

[Цитировать] 

ЭГО писал(а):
Приветствую!
В сети встречался 6 канальная озвучка в 384 кбс с дроздовым.
тут вот hddvd rip с таким звуком. И от hq-video авишный bdrip был когда то.
Есть какието мысли? Там звук был плох? Или типа пересобран с 2 на оригинальную 6?
Просто шикарный сериал, картинка, а всего лишь в стерео. Как то
Посмотрел, звук там нормальный.
Как будет время, постараюсь заменить
[Профиль]  [ЛС] 

softmanyak

Music Group

Стаж: 7 лет

Сообщений: 535

softmanyak · 30-Май-12 16:09 (спустя 2 месяца 10 дней)

[Цитировать] 

Спасибо за труд!
[Профиль]  [ЛС] 

Гость


Гость · 31-Май-12 11:51 (спустя 19 часов)

[Цитировать] 

Спасибо!
 

Гитар

Стаж: 7 лет 9 месяцев

Сообщений: 1


Гитар · 03-Июн-12 15:31 (спустя 3 дня)

[Цитировать] 

Выручил, спасибо У меня завтра как раз в универе доклад на тему широколиственных лесов, включу там 10 серию.
[Профиль]  [ЛС] 

anta2223

Стаж: 8 лет 7 месяцев

Сообщений: 2

anta2223 · 15-Авг-12 00:40 (спустя 2 месяца 11 дней, ред. 15-Авг-12 00:40)

[Цитировать] 

Спасибо. На imdb 1 место среди всех фильмов и сериалов. И не зря!
[Профиль]  [ЛС] 

TankVV

Стаж: 8 лет 6 месяцев

Сообщений: 23


TankVV · 15-Авг-12 08:29 (спустя 7 часов)

[Цитировать] 

Спасибо! Дроздов лучший вспомнил в мире животных :))
[Профиль]  [ЛС] 

mikeVortex

Стаж: 8 лет 7 месяцев

Сообщений: 6


mikeVortex · 19-Авг-12 02:08 (спустя 3 дня)

[Цитировать] 

Определённо это интереснее, чем "информационные программы" по телевизору..
[Профиль]  [ЛС] 

Manuel Flores

Стаж: 7 лет 5 месяцев

Сообщений: 603

Manuel Flores · 26-Авг-12 13:54 (спустя 7 дней)

[Цитировать] 

Жаль нет версии полегче, все-таки в сериалах серии обычно около 700 Мб занимают
[Профиль]  [ЛС] 

лето85

Стаж: 6 лет

Сообщений: 2


лето85 · 27-Сен-12 00:02 (спустя 1 месяц)

[Цитировать] 

отличный фильм, Дроздов как всегда великолепный!!!!!!
[Профиль]  [ЛС] 

aristofun

Стаж: 8 лет 4 месяца

Сообщений: 16


aristofun · 30-Ноя-12 00:21 (спустя 2 месяца 3 дня)

[Цитировать] 

А почему нет 10 минутных приложений к каждой серии о том, как снималась серия??
Нигде не могу найти, ведь это самое интересное!
[Профиль]  [ЛС] 

Музыка Донецка

Стаж: 5 лет 9 месяцев

Сообщений: 5

Музыка Донецка · 28-Дек-12 19:17 (спустя 28 дней)

[Цитировать] 

Отпишусь по теме, оценю труд... Во-первых - очень хороший РИП. Ничё нигде не тормозит, картинка на загон красивая, снято тоже на уровне. Иногда кажется, что РИП подтормаживает, но скорее всего это так режиссёр решил, чтобы замедленно было. Уважаю за нестандартное мышление. Теперь про озвучку. Ну чё тут говорить... когда уже всё давно сказано: Дроздов - наше детство!!! Короче всем качать ОБЯЗАТЕЛЬНО!!!!!
[Профиль]  [ЛС] 

Barasheks

Стаж: 9 лет 8 месяцев

Сообщений: 102


Barasheks · 21-Янв-13 15:48 (спустя 23 дня)

[Цитировать] 

Шикарный фильм и отличный рип. BBC вообще крутейшие передачи и документалки снимает.
[Профиль]  [ЛС] 

J0nes

Стаж: 11 лет 7 месяцев

Сообщений: 163

J0nes · 07-Фев-13 11:37 (спустя 16 дней, ред. 07-Фев-13 11:37)

[Цитировать] 

Фильм очень красивый,сильный и хороший. Но не невероятной красоте пейзажей мир судить нельзя хотя бы потому что у многих людей в мире нет денег даже на еду не то что на путешествие в место где есть красивые пейзажи.
[Профиль]  [ЛС] 

Proxorohka

Стаж: 9 лет 1 месяц

Сообщений: 166

Proxorohka · 05-Мар-13 12:40 (спустя 26 дней)

[Цитировать] 

С удовольствием посмотрю, спасибо!
[Профиль]  [ЛС] 

Дмитрий.Андреевич

Стаж: 8 лет 2 месяца

Сообщений: 55


Дмитрий.Андреевич · 25-Мар-13 17:16 (спустя 20 дней)

[Цитировать] 

Оказывается есть люди, которым нравится Дроздов! Ну а фильм хорош.
[Профиль]  [ЛС] 

trekka

Стаж: 9 лет 5 месяцев

Сообщений: 8


trekka · 06-Апр-13 18:52 (спустя 12 дней)

[Цитировать] 

Подскажите, пожалуйста, документальный фильм о земле, о мире (не сериал) без комментариев диктора, снятый на какую-то популярную камеру одним человеком (не командой), фильм примерно второй половины 90-х гг. и спонсирован именитыми брэндами (одежда: габбана, прада и т.п.) ?
[Профиль]  [ЛС] 

YANUS_01

Стаж: 9 лет 5 месяцев

Сообщений: 53

YANUS_01 · 07-Май-13 10:06 (спустя 1 месяц)

[Цитировать] 

Не хочу ни кого оскорблять, но какой идиот наложил субтитры на видео.
Их же не возможно убрать.
[Профиль]  [ЛС] 

vovaniez

Стаж: 8 лет 9 месяцев

Сообщений: 4931

vovaniez · 07-Май-13 19:13 (спустя 9 часов)

[Цитировать] 

YANUS_01 писал(а):
59190662Не хочу ни кого оскорблять, но какой идиот наложил субтитры на видео.
Их же не возможно убрать.
Не хочу никого оскорблять, но может руки из жопы растут, раз субтитры откл не можете?
[Профиль]  [ЛС] 
 
Ответить
Loading...
Error