Адрес РуТрекера для пользователей РФ - 11.MainTracker.org

Расскажи друзьям:  

Адрес РуТрекера для пользователей РФ - 11.MainTracker.org

Расскажи друзьям:  

Уж не зомби ли это? / Kore wa Zombie Desuka? Ee, Kore ga Saishuukai Desuka? (Канасаки Такаоми) [OVA] [2 из 2] [без хардсаба] [RUS(int), JAP+SUB] [2011, комедия, мистика, этти, пародия, DVDRip] [HWP]

Страницы:  1
Ответить
Автор
Сообщение

Persona99

VIP (Заслуженный)

Стаж: 13 лет

Сообщений: 12672

Persona99 · 21-Июн-12 11:16 (7 лет 3 месяца назад, ред. 15-Авг-12 17:45)

Уж не зомби ли это? / Kore wa Zombie Desuka? Ee, Kore ga Saishuukai Desuka?
Страна: Япония
Год выпуска: 2011 г.
Жанр: приключения
Тип: OVA (2 эп.),
Продолжительность: 25 мин.
Режиссер: Канасаки Такаоми
Описание:Бонус к ограниченному эксклюзивному изданию восьмого тома ранобэ.
Доп. информация: Релиз GSGroup

Качество: DVDRip
Тип релиза: Без хардсаба
Формат видео: AVI
Видео: 704x396/23.976/1260kbpc
Аудио: AC3 48000Hz 192 kb/s , 2 channels Язык Русский (в составе контейнера) ; Озвучка: Persona99
Аудио 2: AC3 48000Hz 192 kb/s , 2 channels Язык Японский ; Озвучка 2: оригинал
Субтитры: Субтитры: внешние ass, srt Язык субтитров русский ; Переводчик: Fendor; Редактор: Renaus; Корректор\оформление: Obelikx; Перевод песен: Sakurachii (01) (02) Переводчик: NLTakaSMOG Редактор\оформление: keit45
Подробные тех. данные
Общее
Полное имя : F:\анииме с русским звуком\Kore wa Zombie Desuka OVA\01 Kore wa Zombie Desu ka OVA [Persona99].rus.jap.avi
Формат : AVI
Формат/Информация : Audio Video Interleave
Размер файла : 308 Мбайт
Продолжительность : 25 м.
Общий поток : 1698 Кбит/сек
Программа кодирования : VirtualDubMod 1.5.10.2 (build 2540/release)
Библиотека кодирования : VirtualDubMod build 2540/release
Видео
Идентификатор : 0
Формат : MPEG-4 Visual
Профиль формата : Advanced Simple@L5
Параметр BVOP формата : 2
Параметр QPel формата : Нет
Параметр GMC формата : Без точки перехода
Параметр матрицы формата : Default (H.263)
Идентификатор кодека : XVID
Идентификатор кодека/Подсказка : XviD
Продолжительность : 25 м.
Битрейт : 1300 Кбит/сек
Ширина : 704 пикс.
Высота : 396 пикс.
Соотношение сторон : 16:9
Частота кадров : 23,976 кадр/сек
Цветовое пространство : YUV
Подвыборка цветности : 4:2:0
Битовая глубина : 8 бит
Тип развёртки : Прогрессивная
Метод сжатия : С потерями
Бит/(Пиксели*Кадры) : 0.194
Размер потока : 236 Мбайт (77%)
Библиотека кодирования : XviD 1.2.1 (UTC 2008-12-04)
Аудио #1
Идентификатор : 1
Формат : AC-3
Формат/Информация : Audio Coding 3
Расширение режима : CM (complete main)
Идентификатор кодека : 2000
Продолжительность : 25 м.
Вид битрейта : Постоянный
Битрейт : 192 Кбит/сек
Каналы : 2 канала
Расположение каналов : Front: L R
Частота : 48,0 КГц
Битовая глубина : 16 бит
Метод сжатия : С потерями
Размер потока : 34,8 Мбайт (11%)
Выравнивание : Разделение по промежуткам
Продолжительность промежутка : 42 мс. (1,00 видеокадр)
Время предзагрузки промежутка : 500 ms
Аудио #2
Идентификатор : 2
Формат : AC-3
Формат/Информация : Audio Coding 3
Расширение режима : CM (complete main)
Идентификатор кодека : 2000
Продолжительность : 25 м.
Вид битрейта : Постоянный
Битрейт : 192 Кбит/сек
Каналы : 2 канала
Расположение каналов : Front: L R
Частота : 48,0 КГц
Битовая глубина : 16 бит
Метод сжатия : С потерями
Размер потока : 34,8 Мбайт (11%)
Выравнивание : Разделение по промежуткам
Продолжительность промежутка : 42 мс. (1,00 видеокадр)
Время предзагрузки промежутка : 500 ms
Отличия
http://1.maintracker.org/forum/viewtopic.php?t=3772685 другая озвучка, совместимость с большинством железных плееров
http://1.maintracker.org/forum/viewtopic.php?t=3625154 другая озвучка, совместимость с большинством железных плееров
http://1.maintracker.org/forum/viewtopic.php?t=3614401 другая озвучка, совместимость с большинством железных плееров
Скриншоты
Download
Сайт не распространяет и не хранит электронные версии произведений, а лишь предоставляет доступ к создаваемому пользователями каталогу ссылок на торрент-файлы, которые содержат только списки хеш-сумм
Как скачивать? (для скачивания .torrent файлов необходима регистрация)
[Профиль]  [ЛС] 
 

Umetsy

Стаж: 10 лет 11 месяцев

Сообщений: 27

Umetsy · 06-Июл-12 00:17 (спустя 14 дней)

У первой OVA, два эпизода же..? http://www.world-art.ru/animation/animation.php?id=1102
[Профиль]  [ЛС] 

Persona99

VIP (Заслуженный)

Стаж: 13 лет

Сообщений: 12672

Persona99 · 06-Июл-12 04:56 (спустя 4 часа)

Муха99 писал(а):
где 2 серия ?
*вспоминает, что точно озвучивала. Лихорадочно мечется по квартире вопрошая:"Где же ОВА?!!!"
Продолжение следует...
[Профиль]  [ЛС] 

Persona99

VIP (Заслуженный)

Стаж: 13 лет

Сообщений: 12672

Persona99 · 06-Июл-12 07:25 (спустя 2 часа 29 мин.)

Нашлась!
серия 2
[Профиль]  [ЛС] 

Муха99

Стаж: 9 лет

Сообщений: 423

Муха99 · 06-Июл-12 09:53 (спустя 2 часа 28 мин.)

Persona99
Цитата:
Субтитры: внешние ass, srt Язык субтитров русский ; Переводчик: Fendor; Редактор: Renaus; Корректор\оформление: Obelikx; Перевод песен: Sakurachii (01) (02) Переводчик: NLTakaSMOG Редактор\оформление: keit45
так будет правильно
[Профиль]  [ЛС] 

Persona99

VIP (Заслуженный)

Стаж: 13 лет

Сообщений: 12672

Persona99 · 06-Июл-12 12:59 (спустя 3 часа)

Муха99 писал(а):
так будет правильно
угу. Мой склероз весьма благодарен
[Профиль]  [ЛС] 

wedun7771

Стаж: 8 лет 8 месяцев

Сообщений: 42


wedun7771 · 22-Окт-12 15:44 (спустя 3 месяца 16 дней)

яростно плюсую человеку, выложившему сабы ко второй серии. Часа полтора наверно искал.
[Профиль]  [ЛС] 

Kalegrim

Стаж: 8 лет 1 месяц

Сообщений: 733

Kalegrim · 30-Окт-12 13:09 (спустя 7 дней, ред. 30-Окт-12 13:09)

Надеюсь будет еще 11 серия она же ОВА2?
[Профиль]  [ЛС] 
 
Ответить
Loading...
Error