Адрес РуТрекера для пользователей РФ - 11.MainTracker.org

Расскажи друзьям:  

Солдаты 2. Спецвыпуск к 23 февраля / Сезон: 2 Серии: 17-18 из 18 (Сергей Арланов) [2004, Комедия, DVD5]

Страницы:  1

Ответить
Автор
Сообщение

Urbаn

Стаж: 8 лет 11 месяцев

Сообщений: 164

Urbаn · 08-Авг-12 00:13 (6 лет 6 месяцев назад, ред. 11-Авг-12 15:40)

Солдаты 2. Спецвыпуск к 23 февраля
Год выпуска: 2004
Производство: RenTV при участии Леан М
Жанр: Комедия
Продолжительность: 104 мин
Режиссёр: Сергей Арланов
В ролях: Алексей Маклаков, Алексей Ошурков, Вячеслав Гришечкин, Игнатий Акрачков, Мария Аронова, Ольга Фадеева, Александр Лымарев, Антон Эльдаров, Александр Пальчиков, Амаду Мамадаков, Анатолий Кощеев
Описание: Действия на этот раз происходят зимой . На замечательный праздник 23 февраля. Внезапно в чаcть приезжают американский полковник и некая дама из Франции. Проверка проходит успешно , но гости решили остаться на праздник и посмотреть , как его празднуют. Тут то и началось веселье.
Качество: DVD5
Формат: DVD Video
Видео кодек: MPEG2
Аудио кодек: AC3
Видео: MPEG2 Video 720x576 (4:3) 25.00fps 5570Kbps (0.537bit/pixel)
Аудио: Dolby AC3 48000Hz stereo 224Kbps
DVD Info
Title:
Size: 4.36 Gb ( 4 570 988,00 KBytes ) - DVD-5
Enabled regions: 5
VTS_01 :
Play Length: 00:00:26
Video: PAL 4:3 (720x576) VBR
Audio:
Russian (Dolby AC3, 2 ch)
VTS_02 :
Play Length: 00:51:56
Video: PAL 4:3 (720x576) VBR
Audio:
Russian (Dolby AC3, 2 ch)
VTS_03 :
Play Length: 00:52:11
Video: PAL 4:3 (720x576) VBR
Audio:
Russian (Dolby AC3, 2 ch)
MediaInfo
General
Complete name : D:\VIDEO_TS\VTS_02_1.VOB
Format : MPEG-PS
File size : 1 024 MiB
Duration : 24mn 37s
Overall bit rate mode : Variable
Overall bit rate : 5 812 Kbps
Video
ID : 224 (0xE0)
Format : MPEG Video
Format version : Version 2
Format profile : [email protected]
Format settings, BVOP : Yes
Format settings, Matrix : Custom
Format settings, GOP : M=3, N=15
Duration : 24mn 37s
Bit rate mode : Variable
Bit rate : 5 473 Kbps
Maximum bit rate : 8 500 Kbps
Width : 720 pixels
Height : 576 pixels
Display aspect ratio : 4:3
Frame rate : 25.000 fps
Standard : PAL
Color space : YUV
Chroma subsampling : 4:2:0
Bit depth : 8 bits
Scan type : Interlaced
Scan order : Bottom Field First
Compression mode : Lossy
Bits/(Pixel*Frame) : 0.528
Stream size : 964 MiB (94%)
Audio
ID : 189 (0xBD)-128 (0x80)
Format : AC-3
Format/Info : Audio Coding 3
Mode extension : CM (complete main)
Format settings, Endianness : Big
Muxing mode : DVD-Video
Duration : 24mn 37s
Bit rate mode : Constant
Bit rate : 224 Kbps
Channel(s) : 2 channels
Channel positions : Front: L R
Sampling rate : 48.0 KHz
Bit depth : 16 bits
Compression mode : Lossy
Stream size : 39.5 MiB (4%)
Menu
Скриншоты
Download
Чтобы скачать .torrent файл необходима регистрация
Сайт не распространяет и не хранит электронные версии произведений, а лишь предоставляет доступ к создаваемому пользователями каталогу ссылок на торрент-файлы, которые содержат только списки хеш-сумм
[Профиль]  [ЛС] 
 

kostik184

VIP (Заслуженный)

Стаж: 11 лет 5 месяцев

Сообщений: 2074

kostik184 · 08-Авг-12 12:15 (спустя 12 часов, ред. 08-Авг-12 12:15)

[Цитировать] 

@ndrON92 писал(а):
Продолжительность: 01:39:01
для DVD указывается общая продолжительность в минутах
Добавьте отчет программ MediaInfo и DVD-Info
Как получить информацию по видео файлу
Добавьте сэмпл...
О сэмплах
@ndrON92 писал(а):
Видео: MPEG2 Video 720x576 (4:3) 25.00fps 8000Kbps
Аудио: Dolby AC3 48000Hz stereo 1792Kbps
проверьте тех данные, что то не то с битрейтом звука
О тех.данных
[Профиль]  [ЛС] 

cornijs6

Стаж: 11 лет 4 месяца

Сообщений: 141

cornijs6 · 13-Авг-12 01:32 (спустя 4 дня)

[Цитировать] 

@ndrON92
Большое спасибо , что всё-таки решились и выложили этот двд !!!!!!!!!!!!!!!!!!! Это огромный подарок для всех поклонников сериала
[Профиль]  [ЛС] 

chervonecc

Стаж: 9 лет 7 месяцев

Сообщений: 150

chervonecc · 25-Авг-12 12:57 (спустя 12 дней)

[Цитировать] 

А Шматко на лицензии не у кого нет?
[Профиль]  [ЛС] 

nik6662007

Стаж: 9 лет 7 месяцев

Сообщений: 116


nik6662007 · 25-Авг-12 15:58 (спустя 3 часа)

[Цитировать] 

chervonecc писал(а):
54862554А Шматко на лицензии не у кого нет?
Вот же есть http://1.maintracker.org/forum/viewtopic.php?t=1423642
[Профиль]  [ЛС] 

chervonecc

Стаж: 9 лет 7 месяцев

Сообщений: 150

chervonecc · 25-Авг-12 16:50 (спустя 52 мин.)

[Цитировать] 

nik6662007 писал(а):
54865303
chervonecc писал(а):
54862554А Шматко на лицензии не у кого нет?
Вот же есть http://1.maintracker.org/forum/viewtopic.php?t=1423642
Это пережатые DVD9 в DVD5
[Профиль]  [ЛС] 

nik6662007

Стаж: 9 лет 7 месяцев

Сообщений: 116


nik6662007 · 25-Авг-12 17:46 (спустя 55 мин., ред. 25-Авг-12 17:46)

[Цитировать] 

Нет, у меня лицензия на полке 2xDVD9, также лицензия выходила на 4xDVD5, четырех DVD9 такой версии не было...
Да и в той раздаче в описании указано 4 оригинальных
[Профиль]  [ЛС] 

chervonecc

Стаж: 9 лет 7 месяцев

Сообщений: 150

chervonecc · 25-Авг-12 17:52 (спустя 6 мин.)

[Цитировать] 

nik6662007 писал(а):
54866997Нет, у меня лицензия на полке 2xDVD9, также лицензия выходила на 4xDVD5, четырех DVD9 такой версии не было...
Да и в той раздаче в описании указано 4 оригинальных
Можешь выложить 2xDVD9?
[Профиль]  [ЛС] 

nik6662007

Стаж: 9 лет 7 месяцев

Сообщений: 116


nik6662007 · 25-Авг-12 18:12 (спустя 20 мин., ред. 25-Авг-12 18:12)

[Цитировать] 

Честно, сомневаюсь. Во-первых раздавать придется месяц, во-вторых они по качеству немного уступают тем 4-ем DVD5, я специально скачал, проверил ради интереса. Во-вотрых и размер содержимого это показывает. Первые 8 серий на 2xDVD5 = 8.55Гб, а на DVD9 = 7.9Гб...
[Профиль]  [ЛС] 

chervonecc

Стаж: 9 лет 7 месяцев

Сообщений: 150

chervonecc · 26-Авг-12 07:48 (спустя 13 часов)

[Цитировать] 

Может Морская душа есть у кого на лицензионных DVD ?
[Профиль]  [ЛС] 

279445

Top Bonus 05* 10TB

Стаж: 10 лет 5 месяцев

Сообщений: 485

279445 · 27-Янв-18 17:05 (спустя 5 лет 5 месяцев, ред. 27-Янв-18 17:05)

[Цитировать] 

На раздаче до конца февраля, кто хочет/может поддержать раздачу - welcome.
[Профиль]  [ЛС] 

pargon31

Стаж: 9 лет 1 месяц

Сообщений: 71


pargon31 · 28-Янв-19 11:49 (спустя 1 год)

[Цитировать] 

А КАК БЫ ДОКАЧАТЬ,А ТО ВТОРЫЕ СУТКИ ТИШИНА.ЗАРАНЕЕ СПАСИБО
[Профиль]  [ЛС] 
 
Ответить
Loading...
Error