Адрес РуТрекера для пользователей РФ - MainTracker.org

Расскажи друзьям:  

Смерть шпионам. Скрытый враг / Серии: 4 из 4 (Эдуард Пальмов) [2012, военный, DVDRip]

Страницы:  1

Ответить
Автор
Сообщение

Crown01

Top Seed 04* 320r

Стаж: 8 лет 10 месяцев

Сообщений: 439

Crown01 · 07-Сен-12 19:54 (5 лет 7 месяцев назад, ред. 07-Сен-12 20:45)

Смерть шпионам. Скрытый враг
Год выпуска: 2012
Производство: Беларусьфильм, Стар-медиа
Жанр: военный
Продолжительность: 00:52:00
Субтитры: Нет

Режиссёр: Эдуард Пальмов

В ролях: Илья Шакунов, Олег Морозов, Денис Бургазлиев, Елена Дудина, Анна Дюкова, Яков Шамшин, Михаил Васьков, Яна Соболевская, Валерий Афанасьев, Алексей Смолка, Владимир Горянский, Артем Волков, Виталий Салий, Юрий Ильин, Валентин Варецкий, Евгений Ефремов, Михаил Жонин, Александр Кобзарь, Вячеслав Соломка, Александр Данильченко, Григорий Боковенко, Александр Андриенко, Полина Пальмова
Описание: На территории Польши, оккупированной немцами, действует разведшкола, готовящая диверсантов. У каждого из них свои жизненные обстоятельства, заставившие служить врагам. Группу из шести человек отправляют в советский тыл, чтобы уничтожить важный стратегический мост в районе Житомира. Через этот мост в направление фронта идет основной поток военной техники и боеприпасов Советской Армии. Уничтожение моста позволит нарушить «кровоснабжение» действующей армии накануне наступления.А в это время в расположении советских войск работают капитан НКВД Александр Галимов со своей помощницей младшим лейтенантом Любовью Липинской, вместе с которой он пытается предупредить диверсию. Но и среди своих им приходится преодолевать служебную бюрократию, происки тайных и явных недоброжелателей, и разбираться в собственных сердечных симпатиях. В действиях диверсантов нет слаженности и порядка, слишком разная оказалась у них мотивация и подоплека. Кто-то из их добровольно работает на немцев, кто-то хочет использовать заброску для перехода на сторону Советской Армии, а кто-то решает использовать немцев в своих собственных корыстных интересах. Но, тем не менее, группе диверсантов удается вплотную подойти к выполнению главного задания. Решающая операция обойдется СМЕРШевцам не только ценой подвига, но и личным выбором и жертвой.

Все раздачи сериала: http://1.maintracker.org/forum/tracker.php?f=9&nm=%D1%EC%E5%F0%F2%FC+%F8%EF%E8%EE%ED%E0%EC
Сэмпл: http://multi-up.com/757584

Качество: DVDRip
Формат: AVI
Видео кодек: XviD
Аудио кодек: AC3
Видео: MPEG4, XviD, 720x400 (16/9), 25.000 fps, 1 688 Kbps (0.234 bit/pixel)
Аудио: AC-3, 48.0 KHz, 2 ch, 192 Kbps, CBR

Реклама отсутствует!
MI
General
Complete name : I:\ЗАКАЧКИ\Smert.shpionam.skrytyy.Vrag.2012.O.DVDRip\Smert.shpionam.skrytyy.Vrag.1.seriya.iz.4.2012.O.DVDRip.IRONCLUB.avi
Format : AVI
Format/Info : Audio Video Interleave
File size : 700 MiB
Duration : 51mn 46s
Overall bit rate : 1 890 Kbps
Movie name : Smert.shpionam.skrytyy.Vrag.1.seriya.iz.4.2012.O.DVDRip.IRONCLUB
Director : -=IRONCLUB=-
Writing application : VirtualDubMod 1.5.10.2 (build 2540/release)
Original source form/Name : Movie
Video
ID : 0
Format : MPEG-4 Visual
Format profile : Advanced Simple@L5
Format settings, BVOP : 1
Format settings, QPel : No
Format settings, GMC : No warppoints
Format settings, Matrix : Custom
Codec ID : XVID
Codec ID/Hint : XviD
Duration : 51mn 46s
Bit rate : 1 688 Kbps
Width : 720 pixels
Height : 400 pixels
Display aspect ratio : 16:9
Frame rate : 25.000 fps
Color space : YUV
Chroma subsampling : 4:2:0
Bit depth : 8 bits
Scan type : Progressive
Compression mode : Lossy
Bits/(Pixel*Frame) : 0.234
Stream size : 625 MiB (89%)
Writing library : XviD 1.2.1 (UTC 2008-12-04)
Audio
ID : 1
Format : AC-3
Format/Info : Audio Coding 3
Mode extension : CM (complete main)
Codec ID : 2000
Duration : 51mn 46s
Bit rate mode : Constant
Bit rate : 192 Kbps
Channel(s) : 2 channels
Channel positions : Front: L R
Sampling rate : 48.0 KHz
Bit depth : 16 bits
Compression mode : Lossy
Stream size : 71.1 MiB (10%)
Alignment : Split accross interleaves
Interleave, duration : 40 ms (1.00 video frame)
Interleave, preload duration : 500 ms
Скриншоты
Download
Чтобы скачать .torrent файл необходима регистрация
Сайт не распространяет и не хранит электронные версии произведений, а лишь предоставляет доступ к создаваемому пользователями каталогу ссылок на торрент-файлы, которые содержат только списки хеш-сумм
[Профиль]  [ЛС] 
 

Podurment

Стаж: 7 лет 9 месяцев

Сообщений: 24

Podurment · 17-Окт-12 19:33 (спустя 1 месяц 9 дней)

[Цитировать] 

Кто знает когда выйдут ?:
Смерть шпионам: Лисья нора
Смерть шпионам: Ударная волна
[Профиль]  [ЛС] 

Dinamic75

Стаж: 9 лет 7 месяцев

Сообщений: 13


Dinamic75 · 02-Дек-12 16:55 (спустя 1 месяц 15 дней)

[Цитировать] 

Да, тоже бы хотелось знать когда продолжение, а то на Кинопоиске тока 2012г. и все
[Профиль]  [ЛС] 

KILLGIRLS

Стаж: 8 лет 3 месяца

Сообщений: 24

KILLGIRLS · 23-Апр-13 22:05 (спустя 4 месяца 21 день, ред. 29-Апр-13 19:24)

[Цитировать] 

Podurment писал(а):
55808714Кто знает когда выйдут ?:
Смерть шпионам: Лисья нора
Смерть шпионам: Ударная волна
Уже в продаже:
скрытый текст
Смерть шпионам. Лисья нора
http://www.golddisk.ru/goods/47320.html
Смерть шпионам. Ударная волна
http://www.golddisk.ru/goods/47321.html
[Профиль]  [ЛС] 

kuz.str

Стаж: 7 лет 7 месяцев

Сообщений: 1993

kuz.str · 21-Ноя-13 16:50 (спустя 6 месяцев)

[Цитировать] 

[Профиль]  [ЛС] 

ShurshunS

Top User 12

Стаж: 9 лет 9 месяцев

Сообщений: 318

ShurshunS · 04-Окт-14 08:30 (спустя 10 месяцев)

[Цитировать] 

Спасибо за раздачу.
Рассмешило в начале 4 серии кровь растеклась на 20 см, а в свитере ни одной дыдочки. Пожалели реквизит?
[Профиль]  [ЛС] 

turkozel

Стаж: 7 лет 10 месяцев

Сообщений: 278


turkozel · 28-Мар-15 22:17 (спустя 5 месяцев 24 дня)

[Цитировать] 

Смотреть, в принципе, можно.
Но советская традиция фильмов про войну исчерпана.
Приходится накручивать всякие невероятные узлы и взбивать мелодраматическую пену.
[Профиль]  [ЛС] 

BozMozzis

Стаж: 10 лет 2 месяца

Сообщений: 323

BozMozzis · 16-Апр-18 09:46 (спустя 3 года)

[Цитировать] 

Имхо, из всего можно смотреть только 1 и 3 сезон.
[Профиль]  [ЛС] 
 
Ответить
Loading...
Error