Адрес РуТрекера для пользователей РФ - MainTracker.org

Расскажи друзьям:  

Добрый вечер, животные [2012, Документальный, DVB] [Выпуски: 01-13, 15]

Страницы:  1

Ответить
Автор
Сообщение

mydimka

Top Seed 05* 640r

Стаж: 8 лет 5 месяцев

Сообщений: 1674

mydimka · 15-Окт-12 20:22 (5 лет 11 месяцев назад, ред. 02-Ноя-12 20:29)

Добрый вечер, животные (Выпуск 01-12)
Год выпуска: 2012
Страна: Россия
Жанр: Документальный
Продолжительность: ~ 00:25:00
Перевод: Не требуется
Русские субтитры: нет
Ведущий: Максим Аверин
Описание: Это первая программа на российском ТВ, которая лечит, а не калечит психику зрителя. Доказано, что домашние животные помогают снять стресс и депрессию. К примеру, британские ученые сравнивают лечебный эффект от мурлыканья кошки с лечением ультразвуком. Так что не просто так нам нравятся котятки! Дельфины, ежики, жирафы, кузнечики и попугаи тоже обладают многочисленными целебными свойствами. MTV гарантирует, что уже после просмотра одной программы «Добрый вечер, животные!» зрители станут настолько стрессоустойчивыми, что смогут целый год не обращать внимания на начальство, и даже минут пятнадцать смотреть криминальные новости на других каналах
Доп. информация: Релиз -

Рип чистый. Без посторонних надписей. Выкладывается как есть.
Качество: DVB
Формат: MPG
Видео кодек: MPG2
Аудио кодек: MP2
Видео: 720x576 @ 768x576 (4:3) 25.00fps 5 810 Kbps, 0.560 bit/pixel
Аудио: MPEG Audio 48000Hz stereo 192 Кбит/сек
Скриншоты и скринлисты выпусков
Выпуск 01 от 15.10.2012
Скриншоты
Скринлист
Выпуск 02 от 16.10.2012
Скриншоты
Скринлист
Выпуск 03 от 17.10.2012
Скриншоты
Скринлист
Выпуск 04 от 18.10.2012
Скриншоты
Скринлист
Выпуск 05 от 19.10.2012
Скриншоты
Скринлист
Выпуск 06 от 22.10.2012
Скриншоты
Скринлист
Выпуск 07 от 23.10.2012
Скриншоты
Скринлист
Выпуск 08 от 24.10.2012
Скриншоты
Скринлист
Выпуск 09 от 25.10.2012
Скриншоты
Скринлист
Выпуск 10 от 26.10.2012
Скриншоты
Скринлист
Выпуск 11 от 29.10.2012
Скриншоты
Скринлист
Выпуск 12 от 30.10.2012
Скриншоты
Скринлист
Выпуск 13 от 30.10.2012
Скриншоты
Скринлист
Выпуск 15 от 30.10.2012
Скриншоты
Скринлист
MI
General
Complete name : Добрый вечер, животные (01-20 выпуски) (MYDIMKA)\Выпуск 01. Эфир 15.10.2012.mpg
Format : MPEG-PS
File size : 1.04 GiB
Duration : 24mn 19s
Overall bit rate mode : Variable
Overall bit rate : 6 123 Kbps
Video
ID : 224 (0xE0)
Format : MPEG Video
Format version : Version 2
Format profile : Main@Main
Format settings, BVOP : Yes
Format settings, Matrix : Custom
Format settings, GOP : M=1, N=14
Duration : 24mn 19s
Bit rate mode : Variable
Bit rate : 5 809 Kbps
Maximum bit rate : 15.0 Mbps
Width : 720 pixels
Height : 576 pixels
Display aspect ratio : 4:3
Frame rate : 25.000 fps
Standard : PAL
Color space : YUV
Chroma subsampling : 4:2:0
Bit depth : 8 bits
Scan type : Interlaced
Scan order : Top Field First
Compression mode : Lossy
Bits/(Pixel*Frame) : 0.560
Stream size : 1 011 MiB (95%)
Audio
ID : 192 (0xC0)
Format : MPEG Audio
Format version : Version 1
Format profile : Layer 2
Duration : 24mn 19s
Bit rate mode : Constant
Bit rate : 192 Kbps
Channel(s) : 2 channels
Sampling rate : 48.0 KHz
Compression mode : Lossy
Delay relative to video : 18ms
Stream size : 33.4 MiB (3%)
Внимание! Раздача ведётся путём добавления новых выпусков
Внимание! Раздача ведётся путём добавления новых выпусков; при каждом добавлении создётся новый торрент. Чтобы начать докачку нового выпуска, пользователям необходимо сделать следующее:
(1) остановить скачивание,
(2) удалить старый торрент у себя из клиента (старые выпуски удалять не надо),
(3) скачать новый торрент и запустить его у себя в клиенте вместо старого, при этом указать клиенту путь в старую папку куда и должно происходить скачивание новых выпусков.
Ваш клиент при этом должен произвести хеширование (проверку) старой папки (если не производит сам - помогите ему сделать это), и будет докачивать только те выпуски которых у вас ещё нет. Старые выпуски при этом не удаляются, а продолжают раздаваться!
Eсли вы уже удалили старые выпуски, то предотвратить повторную закачку старых выпусков можно, отжав галочку в соответсвующих местах при запуске нового торрента. По возможности, желательно не удалять старые выпуски как можно дольше чтобы релизёр не столько продолжал раздавать старые выпуски, а смог сконцентрироваться на новых.
Download
Чтобы скачать .torrent файл необходима регистрация
Сайт не распространяет и не хранит электронные версии произведений, а лишь предоставляет доступ к создаваемому пользователями каталогу ссылок на торрент-файлы, которые содержат только списки хеш-сумм
[Профиль]  [ЛС] 
 

mydimka

Top Seed 05* 640r

Стаж: 8 лет 5 месяцев

Сообщений: 1674

mydimka · 16-Окт-12 22:41 (спустя 1 день 2 часа, ред. 18-Окт-12 21:34)

[Цитировать] 

ДОБАВЛЕН 02 ВЫПУСК
ДОБАВЛЕН 03 ВЫПУСК
ДОБАВЛЕН 04 ВЫПУСК
[Профиль]  [ЛС] 

mydimka

Top Seed 05* 640r

Стаж: 8 лет 5 месяцев

Сообщений: 1674

mydimka · 22-Окт-12 19:36 (спустя 5 дней, ред. 28-Окт-12 12:32)

[Цитировать] 

ДОБАВЛЕН 05 ВЫПУСК
ДОБАВЛЕН 06 ВЫПУСК
[Профиль]  [ЛС] 

Arsenal15

Moderator

Стаж: 8 лет 1 месяц

Сообщений: 13263

Arsenal15 · 22-Окт-12 20:55 (спустя 1 час 18 мин.)

[Цитировать] 

mydimka писал(а):
55774727Видео: 720x576 (4:3) 25.00fps 5 810 Kbps, 0.560 bit/pixel
Здесь тоже исправьте скриншоты, пожалуйста.
[Профиль]  [ЛС] 

mydimka

Top Seed 05* 640r

Стаж: 8 лет 5 месяцев

Сообщений: 1674

mydimka · 23-Окт-12 18:38 (спустя 21 час, ред. 25-Окт-12 20:34)

[Цитировать] 

ДОБАВЛЕН 07 ВЫПУСК
ДОБАВЛЕН 08 ВЫПУСК
ДОБАВЛЕН 09 ВЫПУСК
[Профиль]  [ЛС] 

mydimka

Top Seed 05* 640r

Стаж: 8 лет 5 месяцев

Сообщений: 1674

mydimka · 26-Окт-12 21:42 (спустя 3 дня)

[Цитировать] 

ДОБАВЛЕН 10 ВЫПУСК
[Профиль]  [ЛС] 

mydimka

Top Seed 05* 640r

Стаж: 8 лет 5 месяцев

Сообщений: 1674

mydimka · 31-Окт-12 00:39 (спустя 4 дня)

[Цитировать] 

ДОБАВЛЕН 11 ВЫПУСК
ДОБАВЛЕН 12 ВЫПУСК
[Профиль]  [ЛС] 

Den Stranger

Стаж: 10 лет 7 месяцев

Сообщений: 23

Den Stranger · 12-Дек-12 14:46 (спустя 1 месяц 12 дней)

[Цитировать] 

А больше нету?
[Профиль]  [ЛС] 

mydimka

Top Seed 05* 640r

Стаж: 8 лет 5 месяцев

Сообщений: 1674

mydimka · 12-Дек-12 17:41 (спустя 2 часа 54 мин.)

[Цитировать] 

Den Stranger
Больше, увы, не записываю.
Ищите другие раздачи тут или на других сайтах.
Удачи!
[Профиль]  [ЛС] 

alexandra mischell

Стаж: 9 лет 11 месяцев

Сообщений: 8


alexandra mischell · 17-Авг-13 22:06 (спустя 8 месяцев)

[Цитировать] 

друзья, кто записывал, добавьте в раздачу недостающие выпуски, пожалуйста
[Профиль]  [ЛС] 
 
Ответить
Loading...
Error