Адрес РуТрекера для пользователей РФ - MainTracker.org

Расскажи друзьям:  

Rita Ora - R.I.P. (EMA 2012) [2012, R'n'B, HDTV 1080i]

Страницы:  1

Ответить
Автор
Сообщение

zhopamail

Стаж: 5 лет 6 месяцев

Сообщений: 78

zhopamail · 17-Ноя-12 21:14 (5 лет 6 месяцев назад, ред. 27-Апр-13 19:26)

Rita Ora - R.I.P. (EMA 2012)
Жанр: R'n'B
Продолжительность: 00:03:27
Год выпуска: 2012
Качество: HDTV 1080i
Контейнер: MPG
Видео кодек: MPEG2
Аудио кодек: MPEG
Видео: MPEG Video at 27.1 Mbps 1920 x 1080 at 25.000 fps
Аудио: MPEG Audio at 256 Kbps 2 channels, 48.0 KHz
Отчёт MediaInfo / BDInfo
General
Format : MPEG-PS
File size : 671 MiB
Duration : 3mn 28s
Overall bit rate : 27.1 Mbps
Video
ID : 224 (0xE0)
Format : MPEG Video
Format version : Version 2
Format profile : Main@High
Format settings, BVOP : Yes
Format settings, Matrix : Default
Duration : 3mn 28s
Bit rate mode : Variable
Bit rate : 27.1 Mbps
Width : 1 920 pixels
Height : 1 080 pixels
Display aspect ratio : 16:9
Frame rate : 25.000 fps
Color space : YUV
Chroma subsampling : 4:2:0
Bit depth : 8 bits
Scan type : Interlaced
Scan order : Top Field First
Compression mode : Lossy
Bits/(Pixel*Frame) : 0.523
Stream size : 651 MiB (97%)
Audio
ID : 192 (0xC0)
Format : MPEG Audio
Format version : Version 1
Format profile : Layer 2
Duration : 3mn 28s
Bit rate mode : Constant
Bit rate : 256 Kbps
Channel(s) : 2 channels
Sampling rate : 48.0 KHz
Compression mode : Lossy
Stream size : 6.35 MiB (1%)
Скриншоты
Download
Чтобы скачать .torrent файл необходима регистрация
Сайт не распространяет и не хранит электронные версии произведений, а лишь предоставляет доступ к создаваемому пользователями каталогу ссылок на торрент-файлы, которые содержат только списки хеш-сумм
[Профиль]  [ЛС] 
 

AlexSchl

VIP (Заслуженный)

Стаж: 9 лет 4 месяца

Сообщений: 3030

AlexSchl · 18-Ноя-12 11:35 (спустя 14 часов)

[Цитировать] 

zhopamail
Скриншоты должны быть представлены в любом lossless-формате (кроме несжатого BMP), рекомендуется использовать формат PNG24, исправьте, пожалуйста.
Инструкции по созданию скриншотов в формате png→
[Профиль]  [ЛС] 
 
Ответить
Loading...
Error