Адрес РуТрекера для пользователей РФ - MainTracker.org

Расскажи друзьям:  

Даша / Серии: 01-02 из 02 (Антон Азаров) [2013, Мелодрама, HDTV 1080i]

Страницы:  1

Ответить
Автор
Сообщение

mydimka

Top Seed 05* 640r

Стаж: 8 лет 3 месяца

Сообщений: 1679

mydimka · 14-Апр-13 11:27 (5 лет 3 месяца назад, ред. 14-Апр-13 11:28)

Даша
Год выпуска: 2013
Производство: Россия, кинокомпания УПС
Жанр: Мелодрама
Продолжительность: 03:01:10
Субтитры: Отсутствуют
Режиссёр: Антон Азаров
В ролях: Александр Тютин, Андрей Барило, Дарья Егорова, Артем Фадеев, Игорь Писный, Любава Грешнова, Ирина Барбинова, Михаил Пшеничный, Андрей Дебрин и другие.
Описание: Семнадцатилетняя воспитанница провинциального детского дома Даша становится жертвой богатого мошенника Богданова. Чтобы уберечь свое имущество от конфискации, он выдает Дашу за свою внебрачную дочь, которую разыскал, чтобы загладить прошлые грехи и дать дочери престижное заграничное образование. На самом деле Богданов хочет переписать на девочку свое имущество и избавиться от нее. Только он не учел, что у Даши волевой, свободолюбивый характер: девушка, которая выросла в детском доме, привыкла принимать решения самостоятельно. Она не согласна гнить в рабстве из-за прихоти проворовавшегося негодяя. И теперь богатая невеста Даша будет бороться за свою жизнь и счастье, которое она заслужила...
Все раздачи сериала: http://1.maintracker.org/forum/tracker.php?f=9&nm=%D0%94%D0%B0%D1%88%D0%B0
Сэмпл: http://multi-up.com/854384
Доп. информация: Релиз -

Рип чистый. Без посторонних надписей. Выкладывается как есть.
Качество: HDTV 1080i
Контейнер: TS
Видео кодек: AVC
Аудио кодек: AC3
Видео: 1920x1080 (16:9) 25.000 fps 7 852 Kbps, 0.151 bit/pixel
Аудио: MPEG Audio 48000Hz stereo 192 Кбит/сек
Скриншоты
MI
General
ID : 1 (0x1)
Complete name : J:\ВЫКЛАДКА\HDTV\Сериалы\Даша (2013, Сериал, Мелодрама, HDTV) (MYDIMKA)\01 серия.ts
Format : MPEG-TS
File size : 5.31 GiB
Duration : 1h 30mn
Overall bit rate mode : Variable
Overall bit rate : 8 438 Kbps
Video
ID : 2911 (0xB5F)
Menu ID : 1 (0x1)
Format : AVC
Format/Info : Advanced Video Codec
Format profile : High@L4.0
Format settings, CABAC : Yes
Format settings, ReFrames : 3 frames
Codec ID : 27
Duration : 1h 30mn
Bit rate : 7 827 Kbps
Width : 1 920 pixels
Height : 1 080 pixels
Display aspect ratio : 16:9
Frame rate : 25.000 fps
Color space : YUV
Chroma subsampling : 4:2:0
Bit depth : 8 bits
Scan type : MBAFF
Bits/(Pixel*Frame) : 0.151
Stream size : 4.93 GiB (93%)
Audio
ID : 2912 (0xB60)
Menu ID : 1 (0x1)
Format : MPEG Audio
Format version : Version 1
Format profile : Layer 2
Codec ID : 3
Duration : 1h 30mn
Bit rate mode : Constant
Bit rate : 192 Kbps
Channel(s) : 2 channels
Sampling rate : 48.0 KHz
Compression mode : Lossy
Stream size : 124 MiB (2%)
Language : Russian
Download
Чтобы скачать .torrent файл необходима регистрация
Сайт не распространяет и не хранит электронные версии произведений, а лишь предоставляет доступ к создаваемому пользователями каталогу ссылок на торрент-файлы, которые содержат только списки хеш-сумм
[Профиль]  [ЛС] 
 
 
Ответить
Loading...
Error