Адрес РуТрекера для пользователей РФ - 11.MainTracker.org

Расскажи друзьям:  

Приют комедиантов. Выпуск 42. Актерские страхи (Сергей Варновский) [2013, Россия, Капустник, SATRip]

Страницы:  1

Ответить
Автор
Сообщение

igor0mr

Top Seed 03* 160r

Стаж: 10 лет 1 месяц

Сообщений: 714

igor0mr · 03-Май-13 00:20 (5 лет 7 месяцев назад, ред. 03-Май-13 00:23)

Приют комедиантов. Выпуск 42. Актерские страхи
Страна: Россия
Жанр: Капустник
Год выпуска: 2013
Продолжительность: 01:29:50
Производство: ООО "Эксклюзив ТВ".
Режиссёр: Сергей Варновский
Ведущие: Екатерина Уфимцева, Михаил Швыдкой.
В ролях: Валерий Гаркалин, Татьяна Догилева, Ирина Апексимова, Лидия Вележева, Михаил Полицеймако, Даниил Спиваковский, Эвклид Кюрдзидис и другие.
Описание: "Актёрские страхи". В этом выпуске "Приюта комедиантов" гости программы откроют один из своих самых сокровенных секретов: чего они больше всего боятся на сцене, на съёмках и в жизни.
Актёрские страхи – они какие-то особенные или такие же, как у всех? Какой страшный сон вот уже много лет мучает Ирину Апексимову? Почему Даниил Спиваковский боится высоты, а Лидия Вележева нелётной погоды? Кто избил Ирину Медведеву прямо во время спектакля и правда ли, что актёрская профессия является одной из самых опасных?
А ещё зрители узнают, как режиссёр Алексей Герман по просьбе Георгия Товстоногова и при помощи друга и нескольких бутылок водки изображал крик… сурка; где Владимир Долинский обсуждал с Гитлером судьбу известного ясновидящего; почему Елена Валюшкина после несчастного случая, произошедшего с ней в Риге, попала на страницы всех местных газет; как Валерий Гаркалин исполнил заглавную песню в спектакле на "албанском" языке; почему Сергей Шустицкий боится утратить чувство страха… Кроме того, по традиции, в "Приюте комедиантов" прозвучит много песен, в исполнении как самих популярных артистов, так и их учеников.
Доп. информация:
Премьерный эфир 1 мая 2013
Семпл: http://multi-up.com/861481
Качество видео: SATRip
Формат видео: AVI
Видео: 704x528 (1.33:1), 25 fps, XviD build 50 ~1559 kbps avg, 0.17 bit/pixel
Аудио: 48 kHz, MPEG Layer 3, 2 ch, ~192.00 kbps avg
MediaInfo
Общее
Полное имя : 42.Prijut.komediantov.Actjorskije.Strakhi.Satrip.by.igor0mr.avi
Формат : AVI
Формат/Информация : Audio Video Interleave
Профиль формата : OpenDML
Размер файла : 1,10 Гбайт
Продолжительность : 1 ч. 29 м.
Общий поток : 1758 Кбит/сек
Программа кодирования : MEncoder SVN-r33883(20110719-gcc4.5.2)
Библиотека кодирования : MPlayer
Видео
Идентификатор : 0
Формат : MPEG-4 Visual
Профиль формата : Advanced [email protected]
Параметр BVOP формата : 2
Параметр QPel формата : Нет
Параметр GMC формата : Без точки перехода
Параметр матрицы формата : Default (H.263)
Идентификатор кодека : XVID
Идентификатор кодека/Подсказка : XviD
Продолжительность : 1 ч. 29 м.
Битрейт : 1550 Кбит/сек
Ширина : 704 пикселя
Высота : 528 пикселей
Соотношение сторон : 4:3
Соотношение сторон в оригинале : 4:3
Частота кадров : 25,000 кадров/сек
Цветовое пространство : YUV
Субдискретизация насыщенности : 4:2:0
Битовая глубина : 8 бит
Тип развёртки : Прогрессивная
Метод сжатия : С потерями
Бит/(Пиксели*Кадры) : 0.167
Размер потока : 996 Мбайт (88%)
Библиотека кодирования : XviD 1.2.1 (UTC 2008-12-04)
Аудио
Идентификатор : 1
Формат : MPEG Audio
Версия формата : Version 1
Профиль формата : Layer 3
Режим : Joint stereo
Расширение режима : MS Stereo
Идентификатор кодека : 55
Идентификатор кодека/Подсказка : MP3
Продолжительность : 1 ч. 29 м.
Вид битрейта : Постоянный
Битрейт : 192 Кбит/сек
Каналы : 2 канала
Частота : 48,0 КГц
Метод сжатия : С потерями
Задержка видео : 40 мс.
Размер потока : 123 Мбайт (11%)
Выравнивание : Соединение по промежуткам
Продолжительность промежутка : 24 мс. (0,60 видеокадр)
Время предзагрузки промежутка : 504 мс.
Скриншот с названием постановки
Скриншоты
Download
Чтобы скачать .torrent файл необходима регистрация
Сайт не распространяет и не хранит электронные версии произведений, а лишь предоставляет доступ к создаваемому пользователями каталогу ссылок на торрент-файлы, которые содержат только списки хеш-сумм
[Профиль]  [ЛС] 
 

dmitry2264

VIP (Заслуженный)

Стаж: 10 лет 2 месяца

Сообщений: 7849

dmitry2264 · 03-Май-13 09:57 (спустя 9 часов)

[Цитировать] 

igor0mr
Спасибо!
проверено

[Профиль]  [ЛС] 

starfed

Стаж: 10 лет 9 месяцев

Сообщений: 45


starfed · 04-Май-13 07:49 (спустя 21 час)

[Цитировать] 

Спасибо. Кто может поделиться выпусками 40 и 41?
[Профиль]  [ЛС] 

Евгения Блаер

Стаж: 8 лет 9 месяцев

Сообщений: 4


Евгения Блаер · 04-Май-13 10:26 (спустя 2 часа 37 мин.)

[Цитировать] 

Большое спасибо!!!
Я обычно смотрю эту передачу и записываю себе на ДВД-шник, а тут забыла про неё напрочь... Вспомнила только вчера утром (т.е. 3-го, а показывали её 1-го)
Так, что просто приогромное спасибищие за такую оперативность
[Профиль]  [ЛС] 

Vocenzukve

Стаж: 9 лет 7 месяцев

Сообщений: 16


Vocenzukve · 12-Июн-13 20:40 (спустя 1 месяц 8 дней)

[Цитировать] 

На сайте ТВЦ есть запись, кто умеет сделайте, пожалуйста, рип. Думаю, многие будут благодарны!
[Профиль]  [ЛС] 

Галина Камская

Стаж: 8 лет 10 месяцев

Сообщений: 153


Галина Камская · 24-Июн-13 04:24 (спустя 11 дней)

[Цитировать] 

С нетерпением ждем каждый новый выпуск, 2013 год что-то идет с перебоями. "Звездные пары" кто-нибудь записал?
[Профиль]  [ЛС] 

cheboksarochka

Стаж: 6 лет 11 месяцев

Сообщений: 270

cheboksarochka · 12-Дек-13 21:12 (спустя 5 месяцев 18 дней)

[Цитировать] 

igor0mr
Спасибо.
Передача какая-то домашняя для меня. люблю смотреть живое всё в ней. Катя Семёнова с её
рассказом как она себе подарок покупала и на голову вместо шапки сумку примеряла была
просто уморительная.
[Профиль]  [ЛС] 

RUMIIT

Стаж: 7 лет 11 месяцев

Сообщений: 3


RUMIIT · 04-Авг-14 21:31 (спустя 7 месяцев)

[Цитировать] 

Народ! А продолжение есть где нибудь? Не могу найти вообще...
[Профиль]  [ЛС] 

starfed

Стаж: 10 лет 9 месяцев

Сообщений: 45


starfed · 10-Авг-14 17:36 (спустя 5 дней)

[Цитировать] 

Я тоже не могу найти
[Профиль]  [ЛС] 

euflfqrnj

Стаж: 12 лет 6 месяцев

Сообщений: 83

euflfqrnj · 30-Авг-14 12:48 (спустя 19 дней)

[Цитировать] 

Записи есть на сайте телеканала ТВЦ.
[Профиль]  [ЛС] 
 
Ответить
Loading...
Error