Адрес РуТрекера для пользователей РФ - 11.MainTracker.org

Расскажи друзьям:  

Адрес РуТрекера для пользователей РФ - 11.MainTracker.org

Расскажи друзьям:  

Дикая Роза / Rosa Salvaje / Серии: 199 (Эрнесто Арреола, Беатрис Шеридан / Ernesto Arreola, Beatriz Sheridan) [1987-1988, Мексика, сериал, теленовелла, 6хDVD5]

Страницы:  1
Ответить
 

CurHaJI

Top Loader 01* 100GB

Стаж: 9 лет 11 месяцев

Сообщений: 346

CurHaJI · 23-Авг-13 04:08 (6 лет 2 месяца назад, ред. 24-Авг-13 14:59)

Дикая Роза / Rosa Salvaje
Год выпуска: 1987-1988
Страна: Мексика
Производство: Televisa S.A. de C.V.
Жанр: Сериал, Теленовелла
Серии (количество): 199
Продолжительность: 4242 минуты
Субтитры: отсутствуют
Перевод: Профессиональный (советский дубляж) - Останкино
Роли дублировали: Наталья Варлей, Владимир Конкин, Игорь Тарадайкин, Ольга Машная, Юрий Саранцев, Ирина Савина, Дмитрий Полонский, Любовь Германова, Раиса Рязанова, Александр Рахленко, Ирина Губанова, Елена Астафьева, Ольга Кузнецова, Александр Воеводин, Алексей Инжеватов, Марина Левтова, Андрей Мартынов, Юрий Меншагин, Екатерина Васильева
Режиссёр: Эрнесто Арреола, Беатрис Шеридан / Ernesto Arreola, Beatriz Sheridan
В ролях: Вероника Кастро, Гиллермо Капетильо, Эдит Гонсалес, Фелисия Меркадо, Лилиана Абуд, Лаура Сапата, Клаудио Баес, Армандо Кальво, Ирма Лосано, Отто Сирго, Хайме Гарса, Марианна Леви, Магда Гусман, Рената Флорес, Ада Карраско, Алисия Энсинас, Хозефина Эскобедо, Барбара Хил, Алехандра Мальдонадо
Описание: Роза Гарсия живет в бедном квартале вместе со своей приёмной матерью Томасой. Она ведёт себя как мальчишка-сорванец: дерётся с ребятами, участвует в их проказах. Однажды Роза залезает в сад богатого дома семьи Линарес, чтобы набрать слив. От полиции Розу спасает лишь вмешательство Рикардо - одного из братьев Линарес. Рикардо начинает помогать Розе и девушка быстро влюбляется в молодого красавчика. В семье Линарес все подчинены властной и деспотичной Дульсине, она доминирует над сестрой Кандидой, а их брат Рохелио из-за своей болезни не принимает участия в жизни своей семьи . Однако Рикардо хочет изменить сложившуюся ситуацию, особенно после того, как сестры прямо дают ему понять, что хотят его брака с богатой подругой семьи Леонелой Вильяреаль. Чтобы отомстить сестрам Рикардо женится на Розе, которая наивно верит в его честные намерения. Девушка не представляет сколько унижений ей придётся вытерпеть в этом доме, ведь Дульсина, Кандида и Леонелла не собираются сдаваться и сделают всё, чтобы уничтожить «дикарку». Да и сам Рикардо очень быстро раскаивается в том, использовал Розу для того, чтобы насолить своим сестрам. Со временем отношение Рикардо к жене меняется, его подкупает ее любовь, честность и непосредственность. Но в этот момент Роза узнает правду, и Рикардо, не сумев солгать, признается, что женился не по любви. Не сумев простить предательства, девушка уходит обратно к крестной. Лишь потеряв свою "Дикую Розу" Рикардо понимает, что любит ее, однако уже назначена его свадьба с Леонелой...
Доп. информация:

Все раздачи сериала
Качество: DVD5
Формат: DVD Video
Видео кодек: MPEG2
Аудио кодек: AC3
Видео: MPEG2, 352х288, 25fps, 7174kbps
Аудио: AC3 Dolby Digital, 48000Hz, 192kbps, stereo
MediaInfo
General
Complete name : Dikaa.Roza.1987.D.DVD5\1\VTS_01_1.VOB
Format : MPEG-PS
File size : 1 024 MiB
Duration : 19mn 2s
Overall bit rate mode : Variable
Overall bit rate : 7 516 Kbps
Video
ID : 224 (0xE0)
Format : MPEG Video
Format version : Version 2
Format profile : Main@Main
Format settings, BVOP : No
Format settings, Matrix : Default
Format settings, GOP : M=1, N=15
Duration : 19mn 2s
Bit rate mode : Variable
Bit rate : 7 174 Kbps
Maximum bit rate : 9 500 Kbps
Width : 352 pixels
Height : 288 pixels
Display aspect ratio : 4:3
Frame rate : 25.000 fps
Standard : PAL
Color space : YUV
Chroma subsampling : 4:2:0
Bit depth : 8 bits
Scan type : Progressive
Compression mode : Lossy
Bits/(Pixel*Frame) : 2.831
Stream size : 977 MiB (95%)
Audio
ID : 189 (0xBD)-128 (0x80)
Format : AC-3
Format/Info : Audio Coding 3
Mode extension : CM (complete main)
Muxing mode : DVD-Video
Duration : 19mn 2s
Bit rate mode : Constant
Bit rate : 192 Kbps
Channel(s) : 2 channels
Channel positions : Front: L R
Sampling rate : 48.0 KHz
Bit depth : 16 bits
Compression mode : Lossy
Stream size : 26.2 MiB (3%)
Menu
DVDinfo
Title: 1
Size: 3.74 Gb ( 3 926 558,00 KBytes ) - DVD5
Enabled regions: 1, 2, 3, 4, 5, 6, 7, 8
VTS_01 :
Play Length: 11:46:37+{00:22:06}+{00:21:48}+{00:21:35}+{00:21:32}+{00:20:53}+{00:22:14}+{00:21:21}+{00:22:12}+{00:20:36}+{00:21:19}+{00:21:34}+{00:22:08}+{00:21:20}+{00:21:55}+{00:22:14}+{00:21:39}+{00:20:45}+{00:20:39}+{00:21:15}+{00:21:04}+{00:20:11}+{00:21:45}+{00:19:14}+{00:21:49}+{00:21:12}+{00:21:35}+{00:21:35}+{00:22:03}+{00:20:37}+{00:21:40}+{00:21:26}+{00:21:21}+{00:21:45}
Video: PAL 4:3 (352x288) VBR
Audio:
English (Dolby AC3, 2 ch)
* Menus Information *
VIDEO_TS Menu
Video:
NTSC 4:3 (720x480) VBR
Auto Pan&Scan, Auto Letterboxed
Language Unit :
VTS_01 Menu
Video:
PAL 4:3 (720x576) VBR
English Language Unit :
Root Menu
Subpicture Menu
Angle menu
Chapter (PTT) Menu
Скриншоты
Download
Сайт не распространяет и не хранит электронные версии произведений, а лишь предоставляет доступ к создаваемому пользователями каталогу ссылок на торрент-файлы, которые содержат только списки хеш-сумм
Как скачивать? (для скачивания .torrent файлов необходима регистрация)
[Профиль]  [ЛС] 

Ekaterina2072

VIP (Заслуженный)

Стаж: 12 лет 2 месяца

Сообщений: 3186

Ekaterina2072 · 23-Авг-13 12:16 (спустя 8 часов)

gsi75
А какой смысл этой раздачи, когда есть шикарная раздача в очень хорошем качестве этого сериала - http://1.maintracker.org/forum/viewtopic.php?t=3817323
[Профиль]  [ЛС] 

CurHaJI

Top Loader 01* 100GB

Стаж: 9 лет 11 месяцев

Сообщений: 346

CurHaJI · 23-Авг-13 14:03 (спустя 1 час 47 мин.)

Ekaterina2072 писал(а):
60587247gsi75
А какой смысл этой раздачи, когда есть шикарная раздача в очень хорошем качестве этого сериала - http://1.maintracker.org/forum/viewtopic.php?t=3817323
решать конечно Вам, но всё же это другой формат прежде всего (и это главное отличие), да и здесь серий 199 по 20 минут, что считаю более правильным, а там сдвоенные серии - 99 по 40. диск куплен в магазине.
[Профиль]  [ЛС] 

DEVIL_RUS

Стаж: 8 лет 10 месяцев

Сообщений: 1

DEVIL_RUS · 22-Янв-15 21:17 (спустя 1 год 4 месяца)

в роли зебалаша сам зебалаш
[Профиль]  [ЛС] 
 
Ответить
Loading...
Error